<?xml version="1.0" standalone="no"?>
<!DOCTYPE svg PUBLIC "-//W3C//DTD SVG 1.1//EN" "http://www.w3.org/Graphics/SVG/1.1/DTD/svg11.dtd" >
<svg xmlns="http://www.w3.org/2000/svg">
<metadata>
This is a custom SVG webfont generated by Font Squirrel.
Copyright   : Copyright 19901992 Bitstream Inc  All rights reserved
</metadata>
<defs>
<font id="webfontDpzSI1KM" horiz-adv-x="1223" >
<font-face units-per-em="2048" ascent="1638" descent="-410" />
<missing-glyph horiz-adv-x="582" />
<glyph unicode=" "  horiz-adv-x="582" />
<glyph unicode="&#x09;" horiz-adv-x="582" />
<glyph unicode="&#xa0;" horiz-adv-x="582" />
<glyph unicode="!" horiz-adv-x="676" d="M262 410l-78 663v400h308v-400l-78 -663h-152zM188 0v295h297v-295h-297z" />
<glyph unicode="&#x22;" horiz-adv-x="678" d="M406 1438h192v-559h-192v559zM80 1438h192v-559h-192v559z" />
<glyph unicode="#" horiz-adv-x="1575" d="M709 848l-88 -244h251l86 244h-249zM709 1464h221l-146 -415h242l148 415h221l-148 -415h283l-74 -201h-280l-84 -242h290l-71 -200h-291l-148 -416h-221l148 416h-244l-149 -416h-220l146 416h-287l76 200h282l86 242h-299l74 201h297z" />
<glyph unicode="$" horiz-adv-x="1161" d="M641 186q81 9 124.5 58.5t43.5 128.5q0 73 -39.5 117.5t-128.5 72.5v-377zM522 870v340q-76 -9 -118 -53t-42 -117q0 -61 37.5 -100.5t122.5 -69.5zM522 -225v192q-55 0 -101.5 8t-91.5 26q-84 34 -145 97q-112 118 -112 338h268q0 -54 12 -96q7 -23 15.5 -40t22.5 -35 q45 -59 132 -79v414q-232 59 -330 154t-98 260q0 183 116 295q60 57 138 87t174 30v128h119v-128q96 0 171 -30t131.5 -86.5t89 -133t32.5 -170.5h-272q0 44 -11 77.5t-34 64.5q-34 47 -107 56v-364q247 -77 348 -176t101 -261q0 -188 -116.5 -302.5t-332.5 -135.5v-190 h-119z" />
<glyph unicode="%" horiz-adv-x="1761" d="M1169 332q0 -64 45.5 -111t110.5 -47q63 0 110 46q20 21 33 49.5t13 62.5q0 63 -46 109t-110 46q-66 0 -111 -44.5t-45 -110.5zM952 332q0 154 108 262t265 108q153 0 262 -109t109 -261q0 -154 -109 -263.5t-262 -109.5q-154 0 -263.5 108.5t-109.5 264.5zM371 -41 l854 1473h161l-854 -1473h-161zM283 1059q0 -67 45 -111.5t110 -44.5q62 0 109 45t47 111q0 63 -46 109t-110 46q-66 0 -110.5 -44.5t-44.5 -110.5zM66 1059q0 156 108.5 264.5t263.5 108.5q153 0 262 -109.5t109 -263.5q0 -153 -109 -262t-262 -109q-80 0 -144 25.5 t-121 81.5q-107 107 -107 264z" />
<glyph unicode="&#x26;" horiz-adv-x="1436" d="M553 643l-76 -55q-45 -31 -69 -78q-11 -22 -17 -47t-6 -53q0 -84 58 -142.5t145 -58.5q32 0 57.5 5t35 8t29.5 13q56 27 109 78zM633 958l35 25q47 33 70.5 74t23.5 94q0 52 -32 81q-30 30 -85 30t-87 -30.5t-32 -82.5q0 -13 3 -27.5t11 -32.5q15 -32 46 -71zM408 825 l-58 76q-21 29 -36.5 55.5t-28.5 56.5q-19 57 -19 111q0 157 102 253t279 96q167 0 266 -87t99 -235q0 -110 -56.5 -198t-181.5 -169l211 -260q28 44 46 107q8 26 14.5 61.5t11.5 77.5h260q0 -60 -16 -124q-6 -26 -15 -55t-23 -62q-42 -109 -118 -203l268 -326h-340 l-100 123q-88 -82 -194 -123t-220 -41q-203 0 -333 120t-130 310q0 138 71.5 239.5t240.5 196.5z" />
<glyph unicode="'" horiz-adv-x="352" d="M80 1438h192v-559h-192v559z" />
<glyph unicode="(" horiz-adv-x="758" d="M739 1473q-136 -222 -205 -460q-31 -110 -49 -237.5t-18 -253.5q0 -254 66.5 -491t205.5 -459h-211q-172 237 -264 480t-92 470q0 225 90 470q45 122 111 242t155 239h211z" />
<glyph unicode=")" horiz-adv-x="758" d="M23 1473h213q175 -238 264.5 -478.5t89.5 -472.5q0 -228 -90 -471q-42 -116 -109.5 -237.5t-154.5 -241.5h-213q136 222 205 459.5t69 490.5q0 261 -68 489q-33 116 -84.5 233t-121.5 229z" />
<glyph unicode="*" horiz-adv-x="1024" d="M512 889l-176 -248l-170 119l192 241l-280 78l65 203l269 -96v287h198v-287l269 94l67 -203l-280 -76l190 -239l-174 -125z" />
<glyph unicode="+" horiz-adv-x="1706" d="M752 1221h202v-510h498v-199h-498v-512h-202v512h-498v199h498v510z" />
<glyph unicode="," horiz-adv-x="582" d="M139 -346v117q84 24 124 74q20 24 30 57t10 73v25h-164v301h303v-289q0 -151 -75.5 -240.5t-227.5 -117.5z" />
<glyph unicode="-" horiz-adv-x="684" d="M61 408v274h562v-274h-562z" />
<glyph unicode="." horiz-adv-x="582" d="M139 0v301h301v-301h-301z" />
<glyph unicode="/" horiz-adv-x="649" d="M8 -190l496 1701h137l-498 -1701h-135z" />
<glyph unicode="0" horiz-adv-x="1161" d="M360 696q0 -261 52.5 -379t167.5 -118q113 0 167 119.5t54 377.5q0 130 -13 225t-40 154q-53 117 -168 117q-113 0 -166.5 -118.5t-53.5 -377.5zM63 696q0 368 129 552t388 184q258 0 388 -184.5t130 -553.5q0 -366 -128.5 -549.5t-389.5 -183.5q-257 0 -387 183 t-130 552z" />
<glyph unicode="1" horiz-adv-x="1161" d="M504 0v979h-342v201h22q185 0 271 57t102 195h229v-1432h-282z" />
<glyph unicode="2" horiz-adv-x="1161" d="M48 0q0 189 80.5 323t285.5 273l90 58q270 173 270 333q0 92 -58 148.5t-155 56.5q-108 0 -166.5 -67.5t-58.5 -192.5v-12h-264q0 244 132 378t376 134q219 0 352 -121t133 -320q0 -141 -68 -245.5t-268 -241.5l-116 -76q-185 -118 -212 -184h650v-244h-1003z" />
<glyph unicode="3" horiz-adv-x="1161" d="M57 436h275q0 -119 57 -180t170 -61q108 0 166.5 57t58.5 162q0 103 -69.5 159t-202.5 56l-22 -1l-21 -1v198h31q123 0 183 48t60 149q0 80 -51.5 130t-136.5 50q-94 0 -147 -57q-26 -28 -39 -67t-13 -91v-12h-270q0 111 32.5 193.5t96.5 143.5q127 118 352 118 q212 0 339.5 -105.5t127.5 -282.5q0 -94 -42.5 -164t-129.5 -118q108 -48 165.5 -132.5t57.5 -201.5q0 -212 -141.5 -339.5t-384.5 -127.5q-240 0 -371 123.5t-131 347.5v6z" />
<glyph unicode="4" horiz-adv-x="1161" d="M657 530v613l-389 -613h389zM651 0v309h-604v252l528 830h355v-854h166v-228h-166v-309h-279z" />
<glyph unicode="5" horiz-adv-x="1161" d="M52 385h280q0 -46 15.5 -81.5t47.5 -64.5q56 -51 150 -51q116 0 177.5 68t61.5 195q0 116 -63 186t-174 70q-62 0 -108 -24.5t-81 -74.5l-258 15l93 768h823v-242h-621l-37 -287q45 35 108 54q32 10 64.5 15t71.5 5q214 0 345.5 -129.5t131.5 -341.5q0 -231 -145 -368.5 t-389 -137.5q-223 0 -354 113q-66 57 -102.5 135.5t-36.5 177.5z" />
<glyph unicode="6" horiz-adv-x="1161" d="M369 455q0 -123 61.5 -195t167.5 -72q97 0 154 69.5t57 195.5q0 114 -57.5 178.5t-163.5 64.5q-100 0 -159.5 -64t-59.5 -177zM365 829q48 50 118 75.5t154 25.5q209 0 336 -128.5t127 -340.5q0 -224 -138.5 -364t-363.5 -140q-259 0 -395.5 180.5t-136.5 526.5 q0 372 144 570t419 198q189 0 306 -99q60 -51 94 -119t34 -149h-290q-9 67 -53.5 103t-123.5 36q-108 0 -166 -94q-30 -49 -47.5 -120t-17.5 -161z" />
<glyph unicode="7" horiz-adv-x="1161" d="M569 0h-299q0 138 39 291q32 131 102 290q126 288 359 566h-704v244h1015v-215q-236 -260 -363 -550q-68 -157 -106 -301q-21 -84 -32 -164.5t-11 -160.5z" />
<glyph unicode="8" horiz-adv-x="1161" d="M356 416q0 -105 58.5 -162t167.5 -57q103 0 163 57t60 162q0 99 -60.5 159t-162.5 60q-99 0 -162.5 -60.5t-63.5 -158.5zM379 1030q0 -81 51.5 -126.5t149.5 -45.5q94 0 148 45t54 127q0 77 -55 124.5t-147 47.5q-94 0 -147.5 -47t-53.5 -125zM276 752q-88 48 -129 117 t-41 171q0 181 126.5 287.5t347.5 106.5t349 -104.5t128 -289.5q0 -99 -42 -171t-130 -117q103 -48 157 -135t54 -211q0 -206 -137.5 -326.5t-378.5 -120.5q-242 0 -378 117t-136 330q0 124 49.5 205.5t160.5 140.5z" />
<glyph unicode="9" horiz-adv-x="1161" d="M786 934q0 123 -60.5 194.5t-168.5 71.5q-98 0 -154.5 -70t-56.5 -192q0 -115 57 -180.5t164 -65.5q100 0 159.5 64t59.5 178zM791 561q-50 -50 -120.5 -75t-150.5 -25q-210 0 -337.5 127t-127.5 340q0 223 138 363.5t364 140.5q259 0 397 -180.5t138 -526.5 q0 -373 -146 -570.5t-420 -197.5q-189 0 -305 98q-59 50 -93 119t-34 150l289 -1q9 -67 54.5 -102t123.5 -35q108 0 165 94q30 50 47.5 120t17.5 161z" />
<glyph unicode=":" horiz-adv-x="629" d="M162 766v303h303v-303h-303zM162 0v301h303v-301h-303z" />
<glyph unicode=";" horiz-adv-x="629" d="M164 766v303h301v-303h-301zM164 -346v117q84 24 124 74q20 24 30 57t10 73v25h-166v301h303v-289q0 -151 -75 -239.5t-226 -118.5z" />
<glyph unicode="&#x3c;" horiz-adv-x="1706" d="M1442 1194v-219l-893 -365l893 -364v-219l-1178 485v199z" />
<glyph unicode="=" horiz-adv-x="1706" d="M254 496h1198v-199h-1198v199zM254 926h1198v-199h-1198v199z" />
<glyph unicode="&#x3e;" horiz-adv-x="1706" d="M264 1194l1178 -483v-199l-1178 -485v219l895 364l-895 365v219z" />
<glyph unicode="?" horiz-adv-x="1143" d="M438 428l-1 29l-1 28q0 86 18 144.5t62 111.5q16 18 40.5 41t54.5 46q63 48 83 71q36 42 55 81q15 36 15 79q0 95 -53 148t-148 53t-150 -64q-26 -32 -44 -77q-15 -44 -15 -101h-282v31q0 210 133.5 336t359.5 126q120 0 208 -28.5t159 -90.5q137 -117 137 -317 q0 -72 -15.5 -126.5t-47.5 -100.5q-41 -58 -127 -126l-103 -83q-35 -34 -55 -78q-16 -45 -16 -98l1 -17l1 -18h-269zM424 0v293h295v-293h-295z" />
<glyph unicode="@" horiz-adv-x="2048" d="M1167 272q-54 -84 -126.5 -123.5t-170.5 -39.5q-158 0 -240.5 87t-82.5 253q0 237 139.5 400t343.5 163q78 0 137.5 -33t98.5 -98l53 98h178l-147 -598l-5 -23l-2 -18q0 -32 24 -53q25 -17 71 -17q23 0 40.5 3.5t40.5 16.5q42 20 80 56q83 77 129 185.5t46 236.5 q0 238 -185.5 393.5t-478.5 155.5q-143 0 -264 -34q-63 -17 -115 -41t-104 -60q-168 -113 -260.5 -285.5t-92.5 -374.5q0 -304 207.5 -489t552.5 -185q163 0 317 48.5t287 142.5l82 -117q-150 -111 -324.5 -171t-357.5 -60q-193 0 -353 49q-83 25 -150.5 58.5t-135.5 84.5 q-153 118 -231 278t-78 359q0 168 52.5 320.5t154.5 273.5q147 180 355.5 273.5t463.5 93.5q90 0 162 -11q45 -6 77 -13t78 -22q151 -45 259 -128q135 -105 201.5 -241.5t66.5 -301.5q0 -163 -65 -302.5t-189 -240.5q-64 -52 -153 -86q-82 -29 -171 -29q-104 0 -159.5 43 t-55.5 123zM1217 700q-12 81 -57.5 123.5t-117.5 42.5q-114 0 -198 -123.5t-84 -298.5q0 -90 40.5 -139t117.5 -49q80 0 150 63t95 164z" />
<glyph unicode="A" horiz-adv-x="1405" d="M700 1178l-204 -627h409zM524 1473h350l531 -1473h-318l-100 303h-571l-97 -303h-319z" />
<glyph unicode="B" horiz-adv-x="1442" d="M442 266h359q126 0 184.5 45.5t58.5 145.5q0 101 -58 147.5t-187 46.5h-357v-385zM442 903h346q110 0 163 39t53 121q0 81 -51.5 117.5t-166.5 36.5h-344v-314zM152 0v1473h694q223 0 343 -95.5t120 -277.5q0 -112 -42.5 -185.5t-133.5 -117.5q111 -44 169 -131.5 t58 -216.5q0 -213 -140 -331t-397 -118h-671z" />
<glyph unicode="C" horiz-adv-x="1524" d="M1434 506q0 -121 -50.5 -221.5t-143.5 -177.5q-89 -74 -203 -111t-257 -37q-325 0 -507.5 204.5t-182.5 571.5q0 376 185 576t532 200q280 0 445 -138q84 -70 132 -167t48 -221h-299q-18 122 -101.5 189t-224.5 67q-197 0 -304 -129q-51 -65 -77.5 -159t-26.5 -218 q0 -240 103.5 -371t294.5 -131q139 0 225.5 70t114.5 203h297z" />
<glyph unicode="D" horiz-adv-x="1489" d="M449 266h243q209 0 304.5 111.5t95.5 357.5q0 247 -87.5 363t-275.5 116h-280v-948zM152 0v1473h577q337 0 504.5 -184t167.5 -554q0 -202 -60.5 -355.5t-179.5 -248.5q-85 -67 -199.5 -99t-314.5 -32h-495z" />
<glyph unicode="E" horiz-adv-x="1337" d="M152 0v1473h1069v-256h-770v-314h704v-252h-704v-379h806v-272h-1105z" />
<glyph unicode="F" horiz-adv-x="1225" d="M152 0v1473h1028v-256h-729v-334h639v-256h-639v-627h-299z" />
<glyph unicode="G" horiz-adv-x="1591" d="M1212 174q-81 -111 -187 -163q-53 -26 -114.5 -39t-130.5 -13q-309 0 -500.5 214.5t-191.5 563.5q0 177 47 316t144 246q191 212 509 212q276 0 450 -132t210 -365h-309q-27 114 -114.5 174.5t-225.5 60.5q-185 0 -290.5 -135.5t-105.5 -374.5q0 -240 110 -376t302 -136 q144 0 239.5 83.5t121.5 234.5h-334v252h610v-797h-203z" />
<glyph unicode="H" horiz-adv-x="1522" d="M152 0v1473h305v-549h608v549h305v-1473h-305v653h-608v-653h-305z" />
<glyph unicode="I" horiz-adv-x="629" d="M162 0v1473h303v-1473h-303z" />
<glyph unicode="J" horiz-adv-x="1133" d="M49 549h293v-178q0 -75 46 -116.5t132 -41.5q91 0 129.5 49t38.5 184v1027h303v-1041q0 -142 -15.5 -205.5t-55.5 -115.5q-55 -72 -158 -112q-52 -20 -110 -30t-128 -10q-126 0 -222.5 33.5t-158.5 101.5q-50 53 -72 120.5t-22 219.5v115z" />
<glyph unicode="K" horiz-adv-x="1440" d="M152 0v1473h303v-605l575 605h379l-588 -596l641 -877h-370l-480 674l-157 -156v-518h-303z" />
<glyph unicode="L" horiz-adv-x="1188" d="M152 0v1473h303v-1201h719v-272h-1022z" />
<glyph unicode="M" horiz-adv-x="1786" d="M152 0v1473h448l293 -1121l289 1121h450v-1473h-284v1188l-299 -1188h-310l-303 1188v-1188h-284z" />
<glyph unicode="N" horiz-adv-x="1518" d="M152 0v1473h317l598 -1012v1012h299v-1473h-313l-602 1012v-1012h-299z" />
<glyph unicode="O" horiz-adv-x="1616" d="M397 735q0 -243 108 -377.5t302 -134.5t304 135.5t110 376.5q0 243 -108.5 377.5t-305.5 134.5q-192 0 -301 -134t-109 -378zM88 735q0 357 194.5 566.5t524.5 209.5t525 -210q98 -105 147 -247t49 -319q0 -354 -195.5 -565t-525.5 -211t-524.5 210.5t-194.5 565.5z" />
<glyph unicode="P" horiz-adv-x="1366" d="M457 791h293q119 0 173 50.5t54 162.5q0 106 -53 159.5t-158 53.5h-309v-426zM455 524v-524h-303v1473h655q231 0 351 -120.5t120 -353.5q0 -226 -117.5 -350.5t-333.5 -124.5h-372z" />
<glyph unicode="Q" horiz-adv-x="1616" d="M985 262l-156 152l166 172l160 -156q30 59 48 137t18 168q0 243 -108.5 377.5t-305.5 134.5q-192 0 -301 -134t-109 -378q0 -243 108 -377.5t302 -134.5q53 0 94 10q28 5 44.5 11t39.5 18zM1198 61q-74 -48 -175 -75t-216 -27q-330 0 -524.5 210.5t-194.5 565.5 q0 357 194.5 566.5t524.5 209.5t525 -210q98 -105 147 -247t49 -319q0 -157 -39.5 -286t-118.5 -226l160 -153l-164 -172z" />
<glyph unicode="R" horiz-adv-x="1462" d="M455 829h356q116 0 170.5 47t54.5 148q0 96 -53 145.5t-158 49.5h-370v-390zM152 0v1473h714q241 0 357 -102.5t116 -315.5q0 -137 -56 -226t-163 -122q96 -33 136 -104q20 -36 33.5 -91t13.5 -127l6 -174v-6q0 -67 14.5 -105.5t42.5 -54.5v-45h-332q-13 27 -25 76l-8 52 l-2 57l-4 155q0 35 -3 61.5t-11 51.5q-12 48 -38 72q-45 48 -167 48h-321v-573h-303z" />
<glyph unicode="S" horiz-adv-x="1366" d="M84 455h299q16 -119 98.5 -178.5t237.5 -59.5q133 0 199.5 47t66.5 139q0 134 -385 222q-7 0 -9 2l-31 7q-209 45 -294 101q-76 48 -118 133.5t-42 200.5q0 213 147 328.5t421 115.5q259 0 403 -122q74 -62 114 -148q20 -44 30 -91.5t10 -104.5h-291q0 50 -20.5 90.5 t-61.5 72.5q-74 56 -211 56q-119 0 -183.5 -46.5t-64.5 -132.5q0 -117 251 -175l106 -25q168 -43 231 -64t115 -51q90 -49 135 -131t45 -199q0 -230 -155 -356.5t-437 -126.5q-275 0 -436 129q-79 65 -124.5 158t-45.5 209z" />
<glyph unicode="T" horiz-adv-x="1217" d="M457 0v1210h-437v263h1174v-263h-434v-1210h-303z" />
<glyph unicode="U" horiz-adv-x="1468" d="M143 1477h306v-924q0 -172 68 -250t216 -78q147 0 217 78t70 250v924h303v-957q0 -270 -151.5 -415.5t-436.5 -145.5q-284 0 -438 144t-154 417v957z" />
<glyph unicode="V" horiz-adv-x="1280" d="M498 0l-508 1473h336l313 -1102l319 1102h332l-502 -1473h-290z" />
<glyph unicode="W" horiz-adv-x="1913" d="M438 0l-422 1473h314l252 -1039l213 1039h323l213 -1039l252 1039h311l-421 -1473h-289l-228 1128l-229 -1128h-289z" />
<glyph unicode="X" horiz-adv-x="1282" d="M-10 0l463 752l-463 721h350l301 -515l299 515h352l-463 -719l463 -754h-350l-301 510l-301 -510h-350z" />
<glyph unicode="Y" horiz-adv-x="1274" d="M811 0h-303v549l-535 924h371l315 -635l291 635h346l-485 -924v-549z" />
<glyph unicode="Z" horiz-adv-x="1231" d="M37 0v256l801 950h-785v267h1153v-256l-803 -951h785v-266h-1151z" />
<glyph unicode="[" horiz-adv-x="782" d="M238 1473h505v-213h-235v-1483h235v-213h-505v1909z" />
<glyph unicode="\" horiz-adv-x="649" d="M504 -190l-496 1701h135l498 -1701h-137z" />
<glyph unicode="]" horiz-adv-x="782" d="M557 1473v-1909h-506v213h236v1483h-236v213h506z" />
<glyph unicode="^" horiz-adv-x="2048" d="M897 1460h252l481 -561h-235l-371 371l-373 -371h-235z" />
<glyph unicode="_" horiz-adv-x="1024" d="M0 -279h1024v-204h-1024v204z" />
<glyph unicode="`" horiz-adv-x="1024" d="M219 1587h258l197 -370h-142z" />
<glyph unicode="a" horiz-adv-x="1151" d="M750 135q-54 -82 -144 -128t-207 -46q-156 0 -242.5 90.5t-86.5 255.5q0 153 85 233.5t283 112.5l118 16q185 24 185 107q0 66 -41 94.5t-137 28.5q-88 0 -135 -35t-47 -100v-16h-272v20q0 164 117 261t327 97q228 0 349.5 -78.5t121.5 -228.5v-618q0 -70 13 -101t48 -51 v-49h-303q-12 22 -23 62l-6 30zM745 535q-63 -30 -164 -53l-95 -21q-77 -21 -107.5 -54.5t-30.5 -91.5q0 -60 39.5 -95.5t104.5 -35.5q115 0 184 66t69 182v103z" />
<glyph unicode="b" horiz-adv-x="1255" d="M133 1473h283v-521q52 80 134 126t187 46q195 0 321 -162.5t126 -422.5q0 -259 -125 -417.5t-326 -158.5q-107 0 -181.5 43t-141.5 141v-147h-277v1473zM895 551q0 148 -63 234.5t-173 86.5q-113 0 -178 -84t-65 -237q0 -165 60 -251.5t177 -86.5t179.5 87.5t62.5 250.5z " />
<glyph unicode="c" horiz-adv-x="1128" d="M784 410h287q-18 -207 -150.5 -327t-342.5 -120q-237 0 -371.5 154.5t-134.5 427.5q0 274 138 427.5t378 153.5q210 0 338 -112q66 -57 103 -133q20 -43 30 -85.5t10 -93.5h-289q-12 87 -61 133t-129 46q-108 0 -161.5 -85t-53.5 -255q0 -156 55.5 -241t159.5 -85 q81 0 128.5 47.5t65.5 147.5z" />
<glyph unicode="d" horiz-adv-x="1260" d="M1126 1473v-1473h-276v147q-61 -93 -140.5 -138.5t-185.5 -45.5q-199 0 -324.5 159.5t-125.5 416.5q0 258 124.5 421.5t321.5 163.5q56 0 99.5 -9.5t87.5 -34.5q80 -42 137 -128v521h282zM365 551q0 -166 62 -252t179 -86q116 0 177 87t61 251q0 154 -63.5 237.5 t-180.5 83.5q-108 0 -171.5 -84.5t-63.5 -236.5z" />
<glyph unicode="e" horiz-adv-x="1167" d="M797 330h290q-43 -170 -177 -268.5t-326 -98.5q-234 0 -373 158.5t-139 429.5q0 267 136 421t372 154q249 0 385.5 -151.5t136.5 -431.5l-1 -47v-12q0 -7 -2 -17h-726q0 -63 15 -110t47 -83q57 -65 163 -65q78 0 124.5 29.5t74.5 91.5zM373 658h428q0 105 -57 165 t-158 60q-95 0 -150 -58q-28 -29 -45.5 -72t-17.5 -95z" />
<glyph unicode="f" horiz-adv-x="664" d="M178 0v883h-155v204h155v101q0 149 78 222t248 73l30 -1l35 -1l35 -1h16q6 0 23 -4v-231h-76q-65 0 -85.5 -17t-20.5 -65v-76h182v-204h-180v-883h-285z" />
<glyph unicode="g" horiz-adv-x="1249" d="M365 561q0 -153 61.5 -235t175.5 -82t175 82t61 239q0 146 -62.5 229t-177.5 83q-110 0 -172 -84q-29 -40 -45 -99.5t-16 -132.5zM102 -105l318 1q12 -53 57 -81t117 -28q135 0 189 58q27 29 41 81.5t14 130.5v97q-44 -77 -119 -115.5t-184 -38.5q-208 0 -336.5 150.5 t-128.5 400.5q0 264 124.5 419.5t335.5 155.5q107 0 186 -42t128 -128v131h276v-1015q0 -176 -31 -263.5t-110 -148.5q-63 -48 -167 -76q-53 -14 -108.5 -21t-123.5 -7q-218 0 -343 89q-64 44 -99.5 107t-35.5 143z" />
<glyph unicode="h" horiz-adv-x="1233" d="M133 0v1473h289v-506q59 74 140.5 111.5t182.5 37.5q93 0 172.5 -33t126.5 -94q31 -38 45.5 -94t14.5 -170v-20v-705h-289v569q0 201 -37 253t-133 52q-102 0 -162.5 -60.5t-60.5 -168.5v-645h-289z" />
<glyph unicode="i" horiz-adv-x="557" d="M133 1208v265h291v-265h-291zM133 0v1087h291v-1087h-291z" />
<glyph unicode="j" horiz-adv-x="555" d="M133 1208v262h291v-262h-291zM6 -444v243h57q34 0 52 17.5t18 56.5v1214h291v-1261q0 -144 -81.5 -207t-281.5 -63h-55z" />
<glyph unicode="k" horiz-adv-x="1135" d="M133 0v1473h283v-773l346 387h350l-379 -403l402 -684h-349l-260 463l-110 -119v-344h-283z" />
<glyph unicode="l" horiz-adv-x="563" d="M137 0v1473h291v-1473h-291z" />
<glyph unicode="m" horiz-adv-x="1796" d="M127 0v1087h276v-120q58 73 135 112t167 39q102 0 175 -38t128 -122q57 80 136.5 120t172.5 40q161 0 258.5 -96.5t97.5 -261.5v-760h-287v700q0 78 -42.5 122t-118.5 44q-85 0 -135 -55.5t-50 -151.5v-659h-284v698q0 78 -41.5 123t-116.5 45q-84 0 -134 -57t-50 -152 v-657h-287z" />
<glyph unicode="n" d="M127 0v1087h285v-129q58 76 144 118q42 20 87 30q21 4 47 7t51 3q178 0 268.5 -93.5t90.5 -281.5v-741h-291v657q0 117 -39.5 167t-128.5 50q-102 0 -162.5 -60.5t-60.5 -168.5v-645h-291z" />
<glyph unicode="o" horiz-adv-x="1245" d="M367 545q0 -160 66 -250q34 -44 81.5 -66t108.5 -22q120 0 187 88t67 250q0 159 -66.5 247.5t-187.5 88.5q-123 0 -189.5 -87.5t-66.5 -248.5zM72 545q0 269 147 425t404 156q254 0 402.5 -156t148.5 -425q0 -272 -147.5 -427t-403.5 -155q-255 0 -403 155t-148 427z" />
<glyph unicode="p" horiz-adv-x="1255" d="M895 537q0 164 -62 250.5t-180 86.5q-116 0 -176.5 -86t-60.5 -251q0 -151 63.5 -236.5t179.5 -85.5q108 0 172 86.5t64 235.5zM133 -436v1523h277v-147q62 94 140.5 139t182.5 45q199 0 325 -158.5t126 -416.5q0 -262 -125 -424t-322 -162q-55 0 -99 10t-88 34 q-80 43 -134 128v-571h-283z" />
<glyph unicode="q" horiz-adv-x="1255" d="M360 551q0 -166 62 -252t180 -86q116 0 177 87t61 251q0 154 -63.5 237.5t-180.5 83.5q-108 0 -172 -85t-64 -236zM1124 1087v-1523h-284v577q-59 -89 -138.5 -133.5t-179.5 -44.5q-199 0 -324.5 159.5t-125.5 416.5q0 258 124.5 421.5t321.5 163.5q103 0 187 -44.5 t139 -131.5v139h280z" />
<glyph unicode="r" horiz-adv-x="786" d="M127 0v1087h270v-186q55 109 132 163t182 54l26 -1l16 -1l1 -295h-97q-117 0 -178 -62t-61 -184v-575h-291z" />
<glyph unicode="s" horiz-adv-x="1118" d="M66 354h290q0 -79 59 -121.5t169 -42.5q84 0 131 28.5t47 80.5q0 72 -174 111l-48 10l-65 16q-212 54 -294.5 128t-82.5 200q0 165 120.5 263.5t326.5 98.5q218 0 342 -97q65 -50 99 -118t34 -155h-283q0 66 -51.5 105.5t-138.5 39.5q-83 0 -123.5 -25t-40.5 -75 q0 -63 217 -115l79 -18q214 -51 295 -123t81 -203q0 -185 -130.5 -282t-379.5 -97q-225 0 -352 101t-127 278v12z" />
<glyph unicode="t" horiz-adv-x="651" d="M610 -8l-96 -3l-70 -3q-166 0 -228 63.5t-62 245.5v588h-144v204h144v297h288v-297h168v-204h-168v-602q0 -42 19 -57q21 -13 78 -13h71v-219z" />
<glyph unicode="u" d="M1096 1087v-1087h-285v129q-59 -76 -143 -117t-187 -41q-177 0 -267.5 93.5t-90.5 281.5v741h291v-657q0 -114 39 -164.5t129 -50.5q103 0 163 62.5t60 166.5v643h291z" />
<glyph unicode="v" horiz-adv-x="1085" d="M395 0l-391 1087h322l223 -780l225 780h307l-389 -1087h-297z" />
<glyph unicode="w" horiz-adv-x="1567" d="M322 0l-308 1087h295l178 -753l150 753h297l158 -753l178 753h282l-305 -1087h-291l-174 778l-168 -778h-292z" />
<glyph unicode="x" horiz-adv-x="1057" d="M-8 0l366 555l-350 532h332l192 -327l191 327h321l-342 -528l363 -559h-340l-201 344l-198 -344h-334z" />
<glyph unicode="y" horiz-adv-x="1100" d="M170 -436v235l29 -3l39 -1q88 0 130 40.5t42 121.5l-2 15l-4 15l-392 1100h320l229 -784l223 784h306l-447 -1282q-49 -143 -126 -196q-38 -27 -92.5 -40t-131.5 -13h-21h-18l-19 2z" />
<glyph unicode="z" horiz-adv-x="1036" d="M35 0v223l596 633h-561v231h909v-237l-588 -608h608v-242h-964z" />
<glyph unicode="{" horiz-adv-x="1024" d="M883 1477v-209l-25 1l-22 1q-98 0 -135 -38.5t-37 -162.5v-240q0 -146 -44 -207.5t-163 -91.5q117 -27 162 -87.5t45 -209.5v-241q0 -123 35 -161t137 -38l22 1l25 1v-209l-39 -1l-37 -1q-97 0 -165.5 12t-115.5 37q-58 33 -81 91.5t-23 199.5v252q0 135 -51.5 193.5 t-171.5 58.5l-20 -1l-21 -1v209l21 -1l20 -1q120 0 171 58q26 29 39 79t13 117v250q0 146 22.5 200.5t81.5 92.5q45 23 115 36t166 13l37 -1z" />
<glyph unicode="|" horiz-adv-x="1024" d="M410 1565h206v-2048h-206v2048z" />
<glyph unicode="}" horiz-adv-x="1024" d="M143 1477h68q108 0 177 -12q34 -6 61.5 -15t50.5 -23q54 -29 79 -90t25 -200v-252q0 -134 51.5 -193t171.5 -59l20 1l21 1v-209h-37q-123 0 -175 -56t-52 -194v-252q0 -140 -23.5 -199.5t-80.5 -91.5q-46 -23 -115.5 -36t-165.5 -13l-37 1l-39 1v209l25 -1l22 -1 q98 0 135 38.5t37 160.5v239q0 148 44.5 209t162.5 90q-117 27 -162 89t-45 210v242q0 119 -35.5 159t-136.5 40l-22 -1l-25 -1v209z" />
<glyph unicode="~" horiz-adv-x="1706" d="M1530 803v-221q-106 -71 -197.5 -104.5t-181.5 -33.5l-50 1l-41 6l-47 10q-18 4 -23 5.5t-23 8.5l-71 25q-219 75 -333 75q-42 0 -87 -9q-25 -5 -44.5 -11t-46.5 -18q-48 -19 -98 -47t-109 -72v221q100 68 201.5 105.5t185.5 37.5q118 0 291 -58l4 -1l55 -19 q159 -55 240 -55q40 0 85 9q24 5 43.5 11t46.5 17q85 34 200 117z" />
<glyph unicode="&#xa1;" horiz-adv-x="676" d="M485 1473v-295h-297v295h297zM414 1063l78 -666v-397h-308v397l78 666h152z" />
<glyph unicode="&#xa2;" horiz-adv-x="1161" d="M620 885l-30 3l-19 1q-107 0 -162 -89t-55 -259q0 -102 21.5 -171t66.5 -116zM297 -246l68 244q-147 61 -225.5 200.5t-78.5 344.5q0 273 137.5 428t376.5 155h25l28 -2l52 -6l45 166h109l-54 -190q124 -39 197 -139q39 -54 60.5 -117t21.5 -136l-281 1q-5 52 -23 84 q-17 37 -50 63l-179 -639l6 -1l46 -3q86 0 135.5 47.5t68.5 155.5h281q0 -98 -38 -179.5t-109 -148.5q-133 -121 -338 -121h-20h-17l-18 2l-58 6l-59 -215h-109z" />
<glyph unicode="&#xa3;" horiz-adv-x="1161" d="M70 166q117 81 169 151q26 36 39 73t13 79q0 35 -12 80q-6 23 -15 43q-7 22 -20 47h-176v111h108q-41 84 -64 155q-10 35 -15 65.5t-5 61.5q0 176 130.5 287t344.5 111q232 0 364 -119q68 -61 106 -146.5t38 -191.5h-276q0 54 -16.5 97t-48.5 76q-57 60 -156 60 q-94 0 -144.5 -48.5t-50.5 -141.5q0 -51 63 -192l33 -74h285v-111h-244l13 -70l4 -59q0 -73 -43 -142t-152 -169q25 12 56 23.5t58 19.5q59 16 99 16q49 0 142 -24q44 -11 76.5 -17t51.5 -6q48 0 98 15t97 50l88 -217q-73 -42 -159 -74q-76 -26 -142 -26q-77 0 -207 40 q-68 20 -112.5 30t-73.5 10h-27q-11 0 -34 -3.5t-58 -16.5q-57 -20 -111 -60z" />
<glyph unicode="&#xa4;" horiz-adv-x="1241" d="M623 1161q-113 0 -195 -82t-82 -194q0 -114 81 -195q41 -40 89.5 -60t106.5 -20q111 0 193.5 81.5t82.5 193.5q0 111 -81.5 193.5t-194.5 82.5zM172 1438l205 -203q51 37 114 58l61 15q35 5 69 5h44q16 -3 27 -4.5t24.5 -4.5t35.5 -11q59 -18 116 -58l203 203l105 -107 l-203 -205q38 -51 57 -115q9 -31 14 -62.5t5 -63.5q0 -67 -18.5 -126t-57.5 -116l203 -205l-105 -104l-203 203q-49 -34 -115 -59q-32 -9 -63.5 -14t-66.5 -5q-71 0 -131 18t-115 60l-205 -203l-104 104l202 205q-37 54 -56 113.5t-19 128.5q0 64 18 124.5t57 116.5 l-202 205z" />
<glyph unicode="&#xa5;" horiz-adv-x="1229" d="M776 0h-289v518l-20 35h-449v113h383l-73 127h-310v112h244l-278 486h325l322 -631l299 631h305l-256 -486h233v-112h-292l-68 -127h360v-113h-419l-17 -35v-518z" />
<glyph unicode="&#xa6;" horiz-adv-x="1024" d="M410 408h206v-758h-206v758zM410 1432h206v-758h-206v758z" />
<glyph unicode="&#xa7;" horiz-adv-x="1024" d="M659 487q37 21 58.5 49.5t21.5 61.5q0 40 -23 66q-20 25 -95 65l-265 137q-40 -23 -60 -52t-20 -62q0 -38 30 -70q28 -27 130 -80zM115 160h247q0 -36 12.5 -65.5t33.5 -50.5q40 -38 110 -38q67 0 105.5 31.5t38.5 85.5q0 44 -29 76.5t-115 74.5l-239 121 q-114 57 -170 131t-56 166q0 88 42.5 154.5t129.5 114.5q-47 43 -72.5 97.5t-25.5 119.5q0 150 103 241.5t274 91.5q174 0 276 -90q49 -45 76 -108t27 -141h-236q0 63 -38.5 100t-108.5 37q-59 0 -95 -27q-34 -28 -34 -76q0 -38 38.5 -72t143.5 -85l168 -78 q128 -60 189 -136t61 -171q0 -89 -45 -157t-131 -106q57 -51 86.5 -114t29.5 -135q0 -153 -110 -254t-283 -101q-190 0 -292 92q-52 46 -81.5 115t-29.5 156z" />
<glyph unicode="&#xa8;" horiz-adv-x="1024" d="M573 1276v246h226v-246h-226zM225 1276v246h226v-246h-226z" />
<glyph unicode="&#xa9;" horiz-adv-x="1706" d="M1212 897h-188q-8 70 -53 108.5t-119 38.5q-89 0 -142 -82.5t-53 -226.5q0 -146 51 -223.5t152 -77.5q72 0 116 41.5t54 119.5l193 1q0 -68 -28 -123.5t-81 -99.5q-101 -84 -260 -84q-186 0 -293.5 118t-107.5 322q0 206 109.5 328.5t293.5 122.5q149 0 250 -78 q51 -39 78.5 -91.5t27.5 -113.5zM854 1356q-130 0 -240 -46q-61 -26 -106 -56t-92 -78q-86 -88 -134.5 -203.5t-48.5 -237.5q0 -65 11 -122.5t36 -115.5q46 -110 134 -197.5t203 -136t237 -48.5q127 0 237 47q57 23 108.5 57t96.5 80q87 84 133 198t46 238q0 68 -10.5 122.5 t-36.5 115.5q-46 116 -133.5 202t-200.5 133.5t-240 47.5zM852 1479q155 0 288.5 -55.5t240.5 -162.5q103 -103 159.5 -242.5t56.5 -285.5q0 -152 -54.5 -283t-162.5 -237t-245.5 -164.5t-282.5 -58.5q-149 0 -279.5 56t-242.5 165q-104 103 -161.5 239.5t-57.5 282.5 q0 150 55.5 284t163.5 245q103 103 237 160t285 57z" />
<glyph unicode="&#xaa;" horiz-adv-x="864" d="M100 549h668v-125h-668v125zM551 1079l-62 -19l-77 -18q-140 -32 -140 -104q0 -37 25 -62q28 -22 74 -22q85 0 132.5 44.5t47.5 121.5v59zM778 1290v-432q0 -45 10 -67t37 -35v-45h-243q-12 18 -19 38l-5 22l-3 19q-35 -50 -102 -78t-152 -28q-123 0 -190.5 64.5 t-67.5 183.5q0 108 63 166.5t204 81.5l100 12q137 14 137 68q0 39 -27 59q-27 18 -96 18q-63 0 -95 -21.5t-32 -66.5v-16h-225v18q0 120 90 190t254 70q173 0 267.5 -56.5t94.5 -164.5z" />
<glyph unicode="&#xab;" horiz-adv-x="915" d="M504 416v256l334 289v-238l-205 -178l205 -178v-240zM72 416v256l336 289v-238l-205 -178l205 -178v-240z" />
<glyph unicode="&#xac;" horiz-adv-x="1706" d="M254 864h1198v-502h-199v306h-999v196z" />
<glyph unicode="&#xad;" horiz-adv-x="684" d="M61 408v274h562v-274h-562z" />
<glyph unicode="&#xae;" horiz-adv-x="1706" d="M745 1034v-239h99q87 0 128.5 27t41.5 89q0 64 -44 93.5t-136 29.5h-89zM545 1161h323q174 0 263.5 -59.5t89.5 -177.5q0 -79 -47.5 -137t-133.5 -82l185 -369h-224l-157 338h-99v-338h-200v825zM854 1356q-123 0 -236 -45q-53 -21 -103.5 -54t-92.5 -77 q-87 -87 -138 -205.5t-51 -239.5q0 -122 45 -234.5t134 -201.5q86 -86 202 -136t238 -50q66 0 119.5 10.5t113.5 36.5q114 47 207 135q87 84 135 195t48 233q0 133 -44 244.5t-133 202t-202 138.5t-242 48zM852 1479q154 0 289.5 -57.5t244.5 -166.5q101 -102 156 -238 t55 -284q0 -80 -13 -149t-43 -140q-54 -133 -162 -238q-104 -101 -243 -158.5t-284 -57.5q-151 0 -285.5 57.5t-240 164.5t-160.5 241t-55 280q0 102 27 198t81 189q101 170 267 264.5t366 94.5z" />
<glyph unicode="&#xaf;" horiz-adv-x="1024" d="M225 1321v156h574v-156h-574z" />
<glyph unicode="&#xb0;" horiz-adv-x="674" d="M338 1335q-70 0 -123 -51.5t-53 -122.5t51.5 -123.5t124.5 -52.5q72 0 123 51t51 125q0 72 -51 123t-123 51zM338 1464q124 0 213.5 -89.5t89.5 -215.5q0 -125 -89 -214t-216 -89q-125 0 -213 87t-88 216q0 127 88.5 216t214.5 89z" />
<glyph unicode="&#xb1;" horiz-adv-x="1706" d="M254 197h1198v-199h-1198v199zM752 1223h202v-326h498v-199h-498v-325h-202v325h-498v199h498v326z" />
<glyph unicode="&#xb2;" horiz-adv-x="766" d="M31 557q0 60 14 107.5t41 88.5q53 80 186 162l53 31q185 105 185 203q0 57 -36.5 90t-102.5 33q-72 0 -111 -40t-39 -116v-8h-174q0 145 87.5 225t248.5 80q143 0 231 -71.5t88 -190.5q0 -84 -44.5 -147t-176.5 -144l-82 -50q-120 -69 -135 -110h430v-143h-663z" />
<glyph unicode="&#xb3;" horiz-adv-x="766" d="M37 819h182q0 -68 39 -109q36 -36 111 -36q68 0 108.5 33.5t40.5 97.5q0 63 -45 96t-135 33h-29v119h21q81 0 121.5 28.5t40.5 87.5q0 48 -33.5 78.5t-91.5 30.5q-63 0 -97 -34t-34 -95v-6h-178q0 127 83 198.5t234 71.5q141 0 224 -62t83 -169q0 -58 -27.5 -99.5 t-85.5 -68.5q70 -27 109 -79.5t39 -121.5q0 -127 -94 -204t-254 -77t-246 74t-86 209v4z" />
<glyph unicode="&#xb4;" horiz-adv-x="1024" d="M805 1587l-313 -370h-142l197 370h258z" />
<glyph unicode="&#xb5;" horiz-adv-x="1249" d="M205 1092h289l-76 -435l-12 -71l-10 -76l-7 -68l-2 -53q0 -91 42.5 -137.5t127.5 -46.5q97 0 153.5 80.5t94.5 292.5l90 514h289l-193 -1092h-268l18 117q-42 -78 -94 -114t-121 -36q-66 0 -117.5 28.5t-95.5 92.5l-90 -526h-286z" />
<glyph unicode="&#xb6;" horiz-adv-x="1024" d="M983 1479v-111h-113v-1368h-151v1368h-158v-1368h-153v784q-83 0 -149 25.5t-118 75.5q-100 95 -100 245q0 158 107 253.5t284 95.5h551z" />
<glyph unicode="&#xb8;" horiz-adv-x="1024" d="M283 -438v129l64 -15q38 -9 92 -18q24 -4 52 -7t48 -3q49 0 74.5 17.5t25.5 55.5t-29 54t-92 16h-35q-17 0 -22 -2v211h102v-90h15q115 0 175 -48t60 -143q0 -98 -66.5 -149t-197.5 -51q-62 0 -120 11l-33 5q-13 2 -37 8z" />
<glyph unicode="&#xb9;" horiz-adv-x="766" d="M334 557v588h-228v121h17q121 0 176.5 32.5t69.5 114.5h151v-856h-186z" />
<glyph unicode="&#xba;" horiz-adv-x="934" d="M106 549h723v-125h-723v125zM467 1325q-86 0 -133 -60t-47 -167q0 -111 46 -169.5t134 -58.5q87 0 134.5 59.5t47.5 168.5q0 105 -48 166t-134 61zM467 1511q194 0 309 -110.5t115 -302.5q0 -194 -113 -304t-311 -110t-310 110t-112 304q0 191 112.5 302t309.5 111z" />
<glyph unicode="&#xbb;" horiz-adv-x="915" d="M838 672v-256l-334 -289v238l205 180l-205 176v240zM408 672v-256l-336 -289v238l204 180l-204 176v240z" />
<glyph unicode="&#xbc;" horiz-adv-x="1806" d="M1483 297v342l-240 -342h240zM1483 0v174h-381v139l334 465h223v-477h104v-127h-104v-174h-176zM385 -41l870 1493h164l-872 -1493h-162zM317 612v549h-215v113h15q64 0 103 6.5t68 25.5q54 30 64 107h144v-801h-179z" />
<glyph unicode="&#xbd;" horiz-adv-x="1806" d="M1102 0q0 105 52 181.5t179 152.5l55 31q173 96 173 188q0 51 -36 84q-16 13 -42 23q-13 4 -25 6t-31 2q-67 0 -105 -39t-38 -107v-8h-166q0 138 83 212.5t237 74.5q140 0 223.5 -66.5t83.5 -179.5q0 -80 -42 -137t-171 -135l-74 -43q-117 -66 -132 -103h409v-137h-633z M385 -41l870 1493h164l-872 -1493h-162zM317 612v549h-215v113h15q64 0 103 6.5t68 25.5q54 30 64 107h144v-801h-179z" />
<glyph unicode="&#xbe;" horiz-adv-x="1804" d="M1483 297v342l-240 -342h240zM1483 0v174h-381v139l334 465h223v-477h104v-127h-104v-174h-176zM385 -41l870 1493h164l-872 -1493h-162zM208 856q0 -65 37 -100t107 -35q68 0 105 31.5t37 91.5t-43 90.5t-127 30.5l-15 -1l-14 -1v112h20q78 0 116 26.5t38 82.5 q0 44 -33 74q-33 28 -86 28q-61 0 -93 -32q-32 -30 -32 -89v-6h-171q0 120 80 187t224 67q136 0 214.5 -58.5t78.5 -158.5q0 -51 -27 -93q-24 -34 -81 -65q69 -27 105 -74.5t36 -113.5q0 -118 -90.5 -189t-241.5 -71q-154 0 -234.5 68.5t-80.5 195.5z" />
<glyph unicode="&#xbf;" horiz-adv-x="1143" d="M719 1473v-295h-297v295h297zM705 1044l1 -29l1 -28q0 -88 -18.5 -145t-61.5 -111q-18 -21 -41 -41.5t-57 -46.5q-61 -47 -80 -70q-38 -43 -54 -80.5t-16 -80.5q0 -96 52 -148.5t147 -52.5q90 0 149 63q26 31 43 77.5t17 101.5h284v-31q0 -210 -133 -336.5t-360 -126.5 q-230 0 -367 120.5t-137 317.5q0 70 15 126.5t46 101.5q35 50 126 122l106 84q38 36 54.5 78.5t16.5 100.5l-1 16l-1 18h269z" />
<glyph unicode="&#xc0;" horiz-adv-x="1405" d="M700 1178l-204 -627h409zM524 1473h350l531 -1473h-318l-100 303h-571l-97 -303h-319zM409 1972h258l197 -370h-142z" />
<glyph unicode="&#xc1;" horiz-adv-x="1405" d="M700 1178l-204 -627h409zM524 1473h350l531 -1473h-318l-100 303h-571l-97 -303h-319zM995 1972l-313 -370h-142l197 370h258z" />
<glyph unicode="&#xc2;" horiz-adv-x="1405" d="M700 1178l-204 -627h409zM524 1473h350l531 -1473h-318l-100 303h-571l-97 -303h-319zM387 1602l196 370h238l196 -370h-141l-174 217l-176 -217h-139z" />
<glyph unicode="&#xc3;" horiz-adv-x="1405" d="M700 1178l-204 -627h409zM524 1473h350l531 -1473h-318l-100 303h-571l-97 -303h-319zM1019 1923q-26 -125 -77 -184.5t-131 -59.5h-15h-12l-12 2l-36 9l-87 26l-35 7l-31 3q-31 0 -53 -18t-35 -59h-110q24 121 74 178t130 57q25 0 42 -4q22 -3 44 -10l93 -25l25 -6 l30 -2q29 0 51 21t35 65h110z" />
<glyph unicode="&#xc4;" horiz-adv-x="1405" d="M700 1178l-204 -627h409zM524 1473h350l531 -1473h-318l-100 303h-571l-97 -303h-319zM763 1661v246h226v-246h-226zM415 1661v246h226v-246h-226z" />
<glyph unicode="&#xc5;" horiz-adv-x="1405" d="M700 1835q-46 0 -81 -36.5t-35 -84.5q0 -45 33 -83q34 -34 83 -34q50 0 85.5 34.5t35.5 82.5q0 46 -35.5 83.5t-85.5 37.5zM700 1972q108 0 183 -74.5t75 -181.5q0 -105 -75.5 -180.5t-182.5 -75.5t-180.5 75t-73.5 181q0 108 73.5 182t180.5 74zM508 1413h385l512 -1413 h-318l-100 303h-571l-97 -303h-319zM700 1178l-204 -627h409z" />
<glyph unicode="&#xc6;" horiz-adv-x="2052" d="M504 541h414v682h-166zM-14 0l581 1473h1366v-256h-723v-314h658v-252h-658v-379h760v-272h-1052v303h-500l-111 -303h-321z" />
<glyph unicode="&#xc7;" horiz-adv-x="1524" d="M737 -40q-145 0 -261.5 52t-204.5 151q-181 205 -181 572q0 376 185 576t532 200q280 0 445 -138q84 -70 132 -167t48 -221h-299q-18 122 -101.5 189t-224.5 67q-197 0 -304 -129q-51 -65 -77.5 -159t-26.5 -218q0 -240 103.5 -371t294.5 -131q139 0 225.5 70t114.5 203 h297q0 -121 -50.5 -221.5t-143.5 -177.5q-82 -68 -178 -106q-54 -20 -108 -30t-115 -10v-51h15q115 0 175 -48t60 -143q0 -98 -66.5 -149t-197.5 -51q-62 0 -120 11l-33 5q-13 2 -37 8l-76 19v129l64 -15q38 -9 92 -18q24 -4 52 -7t48 -3q49 0 74.5 17.5t25.5 55.5t-29 54 t-92 16h-35q-17 0 -22 -2v171z" />
<glyph unicode="&#xc8;" horiz-adv-x="1337" d="M152 0v1473h1069v-256h-770v-314h704v-252h-704v-379h806v-272h-1105zM395 1972h258l197 -370h-142z" />
<glyph unicode="&#xc9;" horiz-adv-x="1337" d="M152 0v1473h1069v-256h-770v-314h704v-252h-704v-379h806v-272h-1105zM981 1972l-313 -370h-142l197 370h258z" />
<glyph unicode="&#xca;" horiz-adv-x="1337" d="M152 0v1473h1069v-256h-770v-314h704v-252h-704v-379h806v-272h-1105zM373 1602l196 370h238l196 -370h-141l-174 217l-176 -217h-139z" />
<glyph unicode="&#xcb;" horiz-adv-x="1337" d="M152 0v1473h1069v-256h-770v-314h704v-252h-704v-379h806v-272h-1105zM749 1661v246h226v-246h-226zM401 1661v246h226v-246h-226z" />
<glyph unicode="&#xcc;" horiz-adv-x="629" d="M162 0v1473h303v-1473h-303zM22 1972h258l197 -370h-142z" />
<glyph unicode="&#xcd;" horiz-adv-x="629" d="M162 0v1473h303v-1473h-303zM608 1972l-313 -370h-142l197 370h258z" />
<glyph unicode="&#xce;" horiz-adv-x="629" d="M162 0v1473h303v-1473h-303zM0 1602l196 370h238l196 -370h-141l-174 217l-176 -217h-139z" />
<glyph unicode="&#xcf;" horiz-adv-x="629" d="M162 0v1473h303v-1473h-303zM376 1661v246h226v-246h-226zM28 1661v246h226v-246h-226z" />
<glyph unicode="&#xd0;" horiz-adv-x="1591" d="M1212 174q-81 -111 -187 -163q-53 -26 -114.5 -39t-130.5 -13q-309 0 -500.5 214.5t-191.5 563.5q0 177 47 316t144 246q191 212 509 212q276 0 450 -132t210 -365h-309q-27 114 -114.5 174.5t-225.5 60.5q-185 0 -290.5 -135.5t-105.5 -374.5q0 -240 110 -376t302 -136 q144 0 239.5 83.5t121.5 234.5h-334v252h610v-797h-203zM488 1937h123q0 -35 12.5 -63.5t37.5 -48.5q46 -35 136 -35t132.5 34.5t51.5 112.5h123q0 -76 -21.5 -132t-63.5 -98q-76 -73 -222 -73q-148 0 -223 74q-39 39 -63 96q-11 27 -17 60t-6 73z" />
<glyph unicode="&#xd1;" horiz-adv-x="1518" d="M152 0v1473h317l598 -1012v1012h299v-1473h-313l-602 1012v-1012h-299zM1085 1923q-26 -125 -77 -184.5t-131 -59.5h-15h-12l-12 2l-36 9l-87 26l-35 7l-31 3q-31 0 -53 -18t-35 -59h-110q24 121 74 178t130 57q25 0 42 -4q22 -3 44 -10l93 -25l25 -6l30 -2q29 0 51 21 t35 65h110z" />
<glyph unicode="&#xd2;" horiz-adv-x="1616" d="M397 735q0 -243 108 -377.5t302 -134.5t304 135.5t110 376.5q0 243 -108.5 377.5t-305.5 134.5q-192 0 -301 -134t-109 -378zM88 735q0 357 194.5 566.5t524.5 209.5t525 -210q98 -105 147 -247t49 -319q0 -354 -195.5 -565t-525.5 -211t-524.5 210.5t-194.5 565.5z M516 1972h258l197 -370h-142z" />
<glyph unicode="&#xd3;" horiz-adv-x="1616" d="M397 735q0 -243 108 -377.5t302 -134.5t304 135.5t110 376.5q0 243 -108.5 377.5t-305.5 134.5q-192 0 -301 -134t-109 -378zM88 735q0 357 194.5 566.5t524.5 209.5t525 -210q98 -105 147 -247t49 -319q0 -354 -195.5 -565t-525.5 -211t-524.5 210.5t-194.5 565.5z M1102 1972l-313 -370h-142l197 370h258z" />
<glyph unicode="&#xd4;" horiz-adv-x="1616" d="M397 735q0 -243 108 -377.5t302 -134.5t304 135.5t110 376.5q0 243 -108.5 377.5t-305.5 134.5q-192 0 -301 -134t-109 -378zM88 735q0 357 194.5 566.5t524.5 209.5t525 -210q98 -105 147 -247t49 -319q0 -354 -195.5 -565t-525.5 -211t-524.5 210.5t-194.5 565.5z M494 1602l196 370h238l196 -370h-141l-174 217l-176 -217h-139z" />
<glyph unicode="&#xd5;" horiz-adv-x="1616" d="M397 735q0 -243 108 -377.5t302 -134.5t304 135.5t110 376.5q0 243 -108.5 377.5t-305.5 134.5q-192 0 -301 -134t-109 -378zM88 735q0 357 194.5 566.5t524.5 209.5t525 -210q98 -105 147 -247t49 -319q0 -354 -195.5 -565t-525.5 -211t-524.5 210.5t-194.5 565.5z M1126 1923q-26 -125 -77 -184.5t-131 -59.5h-15h-12l-12 2l-36 9l-87 26l-35 7l-31 3q-31 0 -53 -18t-35 -59h-110q24 121 74 178t130 57q25 0 42 -4q22 -3 44 -10l93 -25l25 -6l30 -2q29 0 51 21t35 65h110z" />
<glyph unicode="&#xd6;" horiz-adv-x="1616" d="M397 735q0 -243 108 -377.5t302 -134.5t304 135.5t110 376.5q0 243 -108.5 377.5t-305.5 134.5q-192 0 -301 -134t-109 -378zM88 735q0 357 194.5 566.5t524.5 209.5t525 -210q98 -105 147 -247t49 -319q0 -354 -195.5 -565t-525.5 -211t-524.5 210.5t-194.5 565.5z M870 1661v246h226v-246h-226zM522 1661v246h226v-246h-226z" />
<glyph unicode="&#xd7;" horiz-adv-x="1706" d="M416 1202l450 -450l451 450l141 -139l-450 -453l450 -450l-141 -140l-451 451l-450 -451l-140 140l451 450l-451 453z" />
<glyph unicode="&#xd8;" horiz-adv-x="1616" d="M512 348q57 -63 132 -94t163 -31q194 0 304 135.5t110 376.5q0 96 -18 178.5t-52 141.5zM449 449l632 696q-50 49 -120.5 75.5t-153.5 26.5q-192 0 -301 -134t-109 -378q0 -88 12 -160t40 -126zM55 23l183 204q-73 98 -111.5 229t-38.5 279q0 357 194.5 566.5 t524.5 209.5q139 0 251 -35.5t210 -111.5l147 166l98 -88l-155 -168q84 -105 127 -239q9 -28 17.5 -65t14 -73.5t8.5 -77.5t3 -84q0 -353 -195.5 -564.5t-525.5 -211.5q-146 0 -267 42t-216 128l-172 -195z" />
<glyph unicode="&#xd9;" horiz-adv-x="1468" d="M143 1477h306v-924q0 -172 68 -250t216 -78q147 0 217 78t70 250v924h303v-957q0 -270 -151.5 -415.5t-436.5 -145.5q-284 0 -438 144t-154 417v957zM442 1972h258l197 -370h-142z" />
<glyph unicode="&#xda;" horiz-adv-x="1468" d="M143 1477h306v-924q0 -172 68 -250t216 -78q147 0 217 78t70 250v924h303v-957q0 -270 -151.5 -415.5t-436.5 -145.5q-284 0 -438 144t-154 417v957zM1028 1972l-313 -370h-142l197 370h258z" />
<glyph unicode="&#xdb;" horiz-adv-x="1468" d="M143 1477h306v-924q0 -172 68 -250t216 -78q147 0 217 78t70 250v924h303v-957q0 -270 -151.5 -415.5t-436.5 -145.5q-284 0 -438 144t-154 417v957zM420 1602l196 370h238l196 -370h-141l-174 217l-176 -217h-139z" />
<glyph unicode="&#xdc;" horiz-adv-x="1468" d="M143 1477h306v-924q0 -172 68 -250t216 -78q147 0 217 78t70 250v924h303v-957q0 -270 -151.5 -415.5t-436.5 -145.5q-284 0 -438 144t-154 417v957zM796 1661v246h226v-246h-226zM448 1661v246h226v-246h-226z" />
<glyph unicode="&#xdd;" horiz-adv-x="629" d="M162 0v1473h303v-1473h-303zM198 1655v258h236v-258h-236z" />
<glyph unicode="&#xde;" horiz-adv-x="1366" d="M633 -40q-114 0 -208.5 33.5t-170.5 94.5q-79 65 -124.5 158t-45.5 209h299q16 -119 98.5 -178.5t237.5 -59.5q133 0 199.5 47t66.5 139q0 134 -385 222q-7 0 -9 2l-31 7q-209 45 -294 101q-76 48 -118 133.5t-42 200.5q0 213 147 328.5t421 115.5q259 0 403 -122 q74 -62 114 -148q20 -44 30 -91.5t10 -104.5h-291q0 50 -20.5 90.5t-61.5 72.5q-74 56 -211 56q-119 0 -183.5 -46.5t-64.5 -132.5q0 -117 251 -175l106 -25q168 -43 231 -64t115 -51q90 -49 135 -131t45 -199q0 -230 -155 -357q-70 -57 -170.5 -91t-221.5 -34v-50h15 q115 0 175 -48t60 -143q0 -98 -66.5 -149t-197.5 -51q-62 0 -120 11l-33 5q-13 2 -37 8l-76 19v129l64 -15q38 -9 92 -18q24 -4 52 -7t48 -3q49 0 74.5 17.5t25.5 55.5t-29 54t-92 16h-35q-17 0 -22 -2v171z" />
<glyph unicode="&#xdf;" horiz-adv-x="1229" d="M127 0v1112q0 163 129 267q65 52 150 78t194 26q219 0 343 -100t124 -275q0 -108 -36.5 -177t-112.5 -106q118 -45 177.5 -136t59.5 -226q0 -221 -129.5 -360.5t-337.5 -139.5l-65 3l-76 9v234l26 -3l41 -1q116 0 181 66.5t65 185.5q0 117 -70 178t-202 61h-27l1 205 l13 -2h21q91 0 136.5 45t45.5 129t-48.5 129t-141.5 45q-83 0 -129.5 -48.5t-46.5 -145.5v-1053h-285z" />
<glyph unicode="&#xe0;" horiz-adv-x="1151" d="M750 135q-54 -82 -144 -128t-207 -46q-156 0 -242.5 90.5t-86.5 255.5q0 153 85 233.5t283 112.5l118 16q185 24 185 107q0 66 -41 94.5t-137 28.5q-88 0 -135 -35t-47 -100v-16h-272v20q0 164 117 261t327 97q228 0 349.5 -78.5t121.5 -228.5v-618q0 -70 13 -101t48 -51 v-49h-303q-12 22 -23 62l-6 30zM745 535q-63 -30 -164 -53l-95 -21q-77 -21 -107.5 -54.5t-30.5 -91.5q0 -60 39.5 -95.5t104.5 -35.5q115 0 184 66t69 182v103zM268 1587h258l197 -370h-142z" />
<glyph unicode="&#xe1;" horiz-adv-x="1151" d="M750 135q-54 -82 -144 -128t-207 -46q-156 0 -242.5 90.5t-86.5 255.5q0 153 85 233.5t283 112.5l118 16q185 24 185 107q0 66 -41 94.5t-137 28.5q-88 0 -135 -35t-47 -100v-16h-272v20q0 164 117 261t327 97q228 0 349.5 -78.5t121.5 -228.5v-618q0 -70 13 -101t48 -51 v-49h-303q-12 22 -23 62l-6 30zM745 535q-63 -30 -164 -53l-95 -21q-77 -21 -107.5 -54.5t-30.5 -91.5q0 -60 39.5 -95.5t104.5 -35.5q115 0 184 66t69 182v103zM854 1587l-313 -370h-142l197 370h258z" />
<glyph unicode="&#xe2;" horiz-adv-x="1151" d="M750 135q-54 -82 -144 -128t-207 -46q-156 0 -242.5 90.5t-86.5 255.5q0 153 85 233.5t283 112.5l118 16q185 24 185 107q0 66 -41 94.5t-137 28.5q-88 0 -135 -35t-47 -100v-16h-272v20q0 164 117 261t327 97q228 0 349.5 -78.5t121.5 -228.5v-618q0 -70 13 -101t48 -51 v-49h-303q-12 22 -23 62l-6 30zM745 535q-63 -30 -164 -53l-95 -21q-77 -21 -107.5 -54.5t-30.5 -91.5q0 -60 39.5 -95.5t104.5 -35.5q115 0 184 66t69 182v103zM246 1217l196 370h238l196 -370h-141l-174 217l-176 -217h-139z" />
<glyph unicode="&#xe3;" horiz-adv-x="1151" d="M750 135q-54 -82 -144 -128t-207 -46q-156 0 -242.5 90.5t-86.5 255.5q0 153 85 233.5t283 112.5l118 16q185 24 185 107q0 66 -41 94.5t-137 28.5q-88 0 -135 -35t-47 -100v-16h-272v20q0 164 117 261t327 97q228 0 349.5 -78.5t121.5 -228.5v-618q0 -70 13 -101t48 -51 v-49h-303q-12 22 -23 62l-6 30zM745 535q-63 -30 -164 -53l-95 -21q-77 -21 -107.5 -54.5t-30.5 -91.5q0 -60 39.5 -95.5t104.5 -35.5q115 0 184 66t69 182v103zM878 1538q-26 -125 -77 -184.5t-131 -59.5h-15h-12l-12 2l-36 9l-87 26l-35 7l-31 3q-31 0 -53 -18t-35 -59 h-110q24 121 74 178t130 57q25 0 42 -4q22 -3 44 -10l93 -25l25 -6l30 -2q29 0 51 21t35 65h110z" />
<glyph unicode="&#xe4;" horiz-adv-x="1151" d="M750 135q-54 -82 -144 -128t-207 -46q-156 0 -242.5 90.5t-86.5 255.5q0 153 85 233.5t283 112.5l118 16q185 24 185 107q0 66 -41 94.5t-137 28.5q-88 0 -135 -35t-47 -100v-16h-272v20q0 164 117 261t327 97q228 0 349.5 -78.5t121.5 -228.5v-618q0 -70 13 -101t48 -51 v-49h-303q-12 22 -23 62l-6 30zM745 535q-63 -30 -164 -53l-95 -21q-77 -21 -107.5 -54.5t-30.5 -91.5q0 -60 39.5 -95.5t104.5 -35.5q115 0 184 66t69 182v103zM622 1276v246h226v-246h-226zM274 1276v246h226v-246h-226z" />
<glyph unicode="&#xe5;" horiz-adv-x="1151" d="M745 535q-63 -30 -164 -53l-95 -21q-77 -21 -107.5 -54.5t-30.5 -91.5q0 -60 39.5 -95.5t104.5 -35.5q115 0 184 66t69 182v103zM449 1427q0 -48 35.5 -82t82.5 -34q49 0 84 33t35 83t-35 85.5t-84 35.5q-47 0 -82.5 -36.5t-35.5 -84.5zM311 1430q0 107 74.5 181.5 t181.5 74.5q106 0 181 -74.5t75 -181.5q0 -108 -74 -182t-182 -74q-107 0 -181.5 74t-74.5 182zM750 135q-54 -82 -144 -128t-207 -46q-156 0 -242.5 90.5t-86.5 255.5q0 153 85 233.5t283 112.5l118 16q185 24 185 107q0 66 -41 94.5t-137 28.5q-88 0 -135 -35t-47 -100 v-16h-272v20q0 164 117 261t327 97q228 0 349.5 -78.5t121.5 -228.5v-618q0 -70 13 -101t48 -51v-49h-303q-12 22 -23 62l-6 30z" />
<glyph unicode="&#xe6;" horiz-adv-x="1810" d="M1002 659h440v7q0 104 -59.5 166.5t-163.5 62.5q-96 0 -156 -64q-29 -32 -46 -75q-15 -42 -15 -97zM739 530q-72 -32 -178 -54l-42 -8q-23 -4 -45 -12q-33 -7 -45 -15q-35 -18 -58 -51q-19 -36 -19 -79q0 -62 40.5 -95.5t115.5 -33.5q96 0 163.5 62t67.5 147v139z M850 154q-67 -96 -176.5 -143.5t-263.5 -47.5q-165 0 -252.5 88.5t-87.5 255.5q0 148 81.5 231.5t251.5 108.5l118 16q212 26 212 111q0 69 -38 95t-142 26q-81 0 -125.5 -35.5t-44.5 -103.5v-8h-274v22q0 165 120.5 260.5t335.5 95.5q110 0 201 -30t147 -86q60 60 140 88 q41 14 84 21q22 3 46 5t52 2q239 0 373.5 -153.5t134.5 -429.5l-1 -47v-12q0 -7 -2 -17h-738q0 -129 61.5 -198.5t171.5 -69.5q67 0 119 33t86 100h291q-39 -172 -176.5 -270.5t-340.5 -98.5q-121 0 -215 48t-149 143z" />
<glyph unicode="&#xe7;" horiz-adv-x="1128" d="M537 -36q-101 0 -182.5 38.5t-148.5 114.5q-134 155 -134 428q0 274 138 427.5t378 153.5q210 0 338 -112q66 -57 103 -133q20 -43 30 -85.5t10 -93.5h-289q-12 87 -61 133t-129 46q-108 0 -161.5 -85t-53.5 -255q0 -156 55.5 -241t159.5 -85q81 0 128.5 47.5t65.5 147.5 h287q-18 -207 -151 -327q-111 -102 -281 -117v-56h15q115 0 175 -48t60 -143q0 -98 -66.5 -149t-197.5 -51q-62 0 -120 11l-33 5q-13 2 -37 8l-76 19v129l64 -15q38 -9 92 -18q24 -4 52 -7t48 -3q49 0 74.5 17.5t25.5 55.5t-29 54t-92 16h-35q-17 0 -22 -2v175z" />
<glyph unicode="&#xe8;" horiz-adv-x="1167" d="M797 330h290q-43 -170 -177 -268.5t-326 -98.5q-234 0 -373 158.5t-139 429.5q0 267 136 421t372 154q249 0 385.5 -151.5t136.5 -431.5l-1 -47v-12q0 -7 -2 -17h-726q0 -63 15 -110t47 -83q57 -65 163 -65q78 0 124.5 29.5t74.5 91.5zM373 658h428q0 105 -57 165 t-158 60q-95 0 -150 -58q-28 -29 -45.5 -72t-17.5 -95zM291 1587h258l197 -370h-142z" />
<glyph unicode="&#xe9;" horiz-adv-x="1167" d="M797 330h290q-43 -170 -177 -268.5t-326 -98.5q-234 0 -373 158.5t-139 429.5q0 267 136 421t372 154q249 0 385.5 -151.5t136.5 -431.5l-1 -47v-12q0 -7 -2 -17h-726q0 -63 15 -110t47 -83q57 -65 163 -65q78 0 124.5 29.5t74.5 91.5zM373 658h428q0 105 -57 165 t-158 60q-95 0 -150 -58q-28 -29 -45.5 -72t-17.5 -95zM877 1587l-313 -370h-142l197 370h258z" />
<glyph unicode="&#xea;" horiz-adv-x="1167" d="M797 330h290q-43 -170 -177 -268.5t-326 -98.5q-234 0 -373 158.5t-139 429.5q0 267 136 421t372 154q249 0 385.5 -151.5t136.5 -431.5l-1 -47v-12q0 -7 -2 -17h-726q0 -63 15 -110t47 -83q57 -65 163 -65q78 0 124.5 29.5t74.5 91.5zM373 658h428q0 105 -57 165 t-158 60q-95 0 -150 -58q-28 -29 -45.5 -72t-17.5 -95zM269 1217l196 370h238l196 -370h-141l-174 217l-176 -217h-139z" />
<glyph unicode="&#xeb;" horiz-adv-x="1167" d="M797 330h290q-43 -170 -177 -268.5t-326 -98.5q-234 0 -373 158.5t-139 429.5q0 267 136 421t372 154q249 0 385.5 -151.5t136.5 -431.5l-1 -47v-12q0 -7 -2 -17h-726q0 -63 15 -110t47 -83q57 -65 163 -65q78 0 124.5 29.5t74.5 91.5zM373 658h428q0 105 -57 165 t-158 60q-95 0 -150 -58q-28 -29 -45.5 -72t-17.5 -95zM645 1276v246h226v-246h-226zM297 1276v246h226v-246h-226z" />
<glyph unicode="&#xec;" horiz-adv-x="557" d="M133 0v1087h291v-1087h-291zM-14 1587h258l197 -370h-142z" />
<glyph unicode="&#xed;" horiz-adv-x="557" d="M133 0v1087h291v-1087h-291zM572 1587l-313 -370h-142l197 370h258z" />
<glyph unicode="&#xee;" horiz-adv-x="557" d="M133 0v1087h291v-1087h-291zM-36 1217l196 370h238l196 -370h-141l-174 217l-176 -217h-139z" />
<glyph unicode="&#xef;" horiz-adv-x="557" d="M133 0v1087h291v-1087h-291zM340 1276v246h226v-246h-226zM-8 1276v246h226v-246h-226z" />
<glyph unicode="&#xf0;" horiz-adv-x="1249" d="M365 561q0 -153 61.5 -235t175.5 -82t175 82t61 239q0 146 -62.5 229t-177.5 83q-110 0 -172 -84q-29 -40 -45 -99.5t-16 -132.5zM102 -105l318 1q12 -53 57 -81t117 -28q135 0 189 58q27 29 41 81.5t14 130.5v97q-44 -77 -119 -115.5t-184 -38.5q-208 0 -336.5 150.5 t-128.5 400.5q0 264 124.5 419.5t335.5 155.5q107 0 186 -42t128 -128v131h276v-1015q0 -176 -31 -263.5t-110 -148.5q-63 -48 -167 -76q-53 -14 -108.5 -21t-123.5 -7q-218 0 -343 89q-64 44 -99.5 107t-35.5 143zM316 1552h123q0 -35 12.5 -63.5t37.5 -48.5 q46 -35 136 -35t132.5 34.5t51.5 112.5h123q0 -76 -21.5 -132t-63.5 -98q-76 -73 -222 -73q-148 0 -223 74q-39 39 -63 96q-11 27 -17 60t-6 73z" />
<glyph unicode="&#xf1;" d="M127 0v1087h285v-129q58 76 144 118q42 20 87 30q21 4 47 7t51 3q178 0 268.5 -93.5t90.5 -281.5v-741h-291v657q0 117 -39.5 167t-128.5 50q-102 0 -162.5 -60.5t-60.5 -168.5v-645h-291zM944 1538q-26 -125 -77 -184.5t-131 -59.5h-15h-12l-12 2l-36 9l-87 26l-35 7 l-31 3q-31 0 -53 -18t-35 -59h-110q24 121 74 178t130 57q25 0 42 -4q22 -3 44 -10l93 -25l25 -6l30 -2q29 0 51 21t35 65h110z" />
<glyph unicode="&#xf2;" horiz-adv-x="1245" d="M367 545q0 -160 66 -250q34 -44 81.5 -66t108.5 -22q120 0 187 88t67 250q0 159 -66.5 247.5t-187.5 88.5q-123 0 -189.5 -87.5t-66.5 -248.5zM72 545q0 269 147 425t404 156q254 0 402.5 -156t148.5 -425q0 -272 -147.5 -427t-403.5 -155q-255 0 -403 155t-148 427z M330 1587h258l197 -370h-142z" />
<glyph unicode="&#xf3;" horiz-adv-x="1245" d="M367 545q0 -160 66 -250q34 -44 81.5 -66t108.5 -22q120 0 187 88t67 250q0 159 -66.5 247.5t-187.5 88.5q-123 0 -189.5 -87.5t-66.5 -248.5zM72 545q0 269 147 425t404 156q254 0 402.5 -156t148.5 -425q0 -272 -147.5 -427t-403.5 -155q-255 0 -403 155t-148 427z M916 1587l-313 -370h-142l197 370h258z" />
<glyph unicode="&#xf4;" horiz-adv-x="1245" d="M367 545q0 -160 66 -250q34 -44 81.5 -66t108.5 -22q120 0 187 88t67 250q0 159 -66.5 247.5t-187.5 88.5q-123 0 -189.5 -87.5t-66.5 -248.5zM72 545q0 269 147 425t404 156q254 0 402.5 -156t148.5 -425q0 -272 -147.5 -427t-403.5 -155q-255 0 -403 155t-148 427z M308 1217l196 370h238l196 -370h-141l-174 217l-176 -217h-139z" />
<glyph unicode="&#xf5;" horiz-adv-x="1245" d="M367 545q0 -160 66 -250q34 -44 81.5 -66t108.5 -22q120 0 187 88t67 250q0 159 -66.5 247.5t-187.5 88.5q-123 0 -189.5 -87.5t-66.5 -248.5zM72 545q0 269 147 425t404 156q254 0 402.5 -156t148.5 -425q0 -272 -147.5 -427t-403.5 -155q-255 0 -403 155t-148 427z M940 1538q-26 -125 -77 -184.5t-131 -59.5h-15h-12l-12 2l-36 9l-87 26l-35 7l-31 3q-31 0 -53 -18t-35 -59h-110q24 121 74 178t130 57q25 0 42 -4q22 -3 44 -10l93 -25l25 -6l30 -2q29 0 51 21t35 65h110z" />
<glyph unicode="&#xf6;" horiz-adv-x="1245" d="M367 545q0 -160 66 -250q34 -44 81.5 -66t108.5 -22q120 0 187 88t67 250q0 159 -66.5 247.5t-187.5 88.5q-123 0 -189.5 -87.5t-66.5 -248.5zM72 545q0 269 147 425t404 156q254 0 402.5 -156t148.5 -425q0 -272 -147.5 -427t-403.5 -155q-255 0 -403 155t-148 427z M684 1276v246h226v-246h-226zM336 1276v246h226v-246h-226z" />
<glyph unicode="&#xf7;" horiz-adv-x="1706" d="M854 369q59 0 105.5 -45.5t46.5 -106.5q0 -60 -46 -104.5t-106 -44.5q-63 0 -107.5 42t-44.5 107q0 63 44.5 107.5t107.5 44.5zM254 711h1198v-199h-1198v199zM854 1155q59 0 105.5 -44.5t46.5 -106.5q0 -63 -44.5 -107.5t-107.5 -44.5t-107.5 45.5t-44.5 106.5 q0 62 45.5 106.5t106.5 44.5z" />
<glyph unicode="&#xf8;" horiz-adv-x="1245" d="M434 281q36 -42 81 -63q48 -19 103 -19q130 0 198.5 89.5t68.5 260.5q0 51 -7 93q-6 49 -20 81zM809 811q-36 39 -82 58q-22 10 -42.5 14.5t-32.5 5t-19 0.5q-135 0 -205 -89.5t-70 -262.5q0 -47 6.5 -84t11.5 -55q2 -6 11 -31zM39 10l145 152q-55 74 -84.5 172 t-29.5 211q0 270 150.5 426.5t408.5 156.5q102 0 193 -30.5t167 -91.5l135 145l78 -74l-141 -149q55 -71 85 -169q14 -49 21 -101q3 -27 5 -55t2 -62q0 -265 -149.5 -422.5t-403.5 -157.5q-116 0 -204.5 29t-160.5 92l-139 -148z" />
<glyph unicode="&#xf9;" d="M1096 1087v-1087h-285v129q-59 -76 -143 -117t-187 -41q-177 0 -267.5 93.5t-90.5 281.5v741h291v-657q0 -114 39 -164.5t129 -50.5q103 0 163 62.5t60 166.5v643h291zM319 1587h258l197 -370h-142z" />
<glyph unicode="&#xfa;" d="M1096 1087v-1087h-285v129q-59 -76 -143 -117t-187 -41q-177 0 -267.5 93.5t-90.5 281.5v741h291v-657q0 -114 39 -164.5t129 -50.5q103 0 163 62.5t60 166.5v643h291zM905 1587l-313 -370h-142l197 370h258z" />
<glyph unicode="&#xfb;" d="M1096 1087v-1087h-285v129q-59 -76 -143 -117t-187 -41q-177 0 -267.5 93.5t-90.5 281.5v741h291v-657q0 -114 39 -164.5t129 -50.5q103 0 163 62.5t60 166.5v643h291zM297 1217l196 370h238l196 -370h-141l-174 217l-176 -217h-139z" />
<glyph unicode="&#xfc;" d="M1096 1087v-1087h-285v129q-59 -76 -143 -117t-187 -41q-177 0 -267.5 93.5t-90.5 281.5v741h291v-657q0 -114 39 -164.5t129 -50.5q103 0 163 62.5t60 166.5v643h291zM673 1276v246h226v-246h-226zM325 1276v246h226v-246h-226z" />
<glyph unicode="&#xfd;" horiz-adv-x="557" d="M133 0v1087h291v-1087h-291z" />
<glyph unicode="&#xfe;" horiz-adv-x="1118" d="M508 -36q-98 0 -175 24.5t-140 75.5q-127 101 -127 278v12h290q0 -79 59 -121.5t169 -42.5q84 0 131 28.5t47 80.5q0 72 -174 111l-48 10l-65 16q-212 54 -294.5 128t-82.5 200q0 165 120.5 263.5t326.5 98.5q218 0 342 -97q65 -50 99 -118t34 -155h-283 q0 66 -51.5 105.5t-138.5 39.5q-83 0 -123.5 -25t-40.5 -75q0 -63 217 -115l79 -18q214 -51 295 -123t81 -203q0 -185 -131 -282q-57 -42 -138 -69q-37 -12 -82 -19t-94 -7v-55h15q115 0 175 -48t60 -143q0 -98 -66.5 -149t-197.5 -51q-62 0 -120 11l-33 5q-13 2 -37 8 l-76 19v129l64 -15q38 -9 92 -18q24 -4 52 -7t48 -3q49 0 74.5 17.5t25.5 55.5t-29 54t-92 16h-35q-17 0 -22 -2v175z" />
<glyph unicode="&#xff;" horiz-adv-x="1100" d="M170 -436v235l29 -3l39 -1q88 0 130 40.5t42 121.5l-2 15l-4 15l-392 1100h320l229 -784l223 784h306l-447 -1282q-49 -143 -126 -196q-38 -27 -92.5 -40t-131.5 -13h-21h-18l-19 2zM612 1276v246h226v-246h-226zM264 1276v246h226v-246h-226z" />
<glyph unicode="&#x100;" horiz-adv-x="1405" d="M412 1633v156h574v-156h-574zM700 1178l-204 -627h409zM524 1473h350l531 -1473h-318l-100 303h-571l-97 -303h-319z" />
<glyph unicode="&#x101;" horiz-adv-x="1151" d="M266 1248v156h574v-156h-574zM750 135q-54 -82 -144 -128t-207 -46q-156 0 -242.5 90.5t-86.5 255.5q0 153 85 233.5t283 112.5l118 16q185 24 185 107q0 66 -41 94.5t-137 28.5q-88 0 -135 -35t-47 -100v-16h-272v20q0 164 117 261t327 97q228 0 349.5 -78.5 t121.5 -228.5v-618q0 -70 13 -101t48 -51v-49h-303q-12 22 -23 62l-6 30zM745 535q-63 -30 -164 -53l-95 -21q-77 -21 -107.5 -54.5t-30.5 -91.5q0 -60 39.5 -95.5t104.5 -35.5q115 0 184 66t69 182v103z" />
<glyph unicode="&#x102;" horiz-adv-x="1405" d="M391 1936h123q0 -35 12.5 -63.5t37.5 -48.5q46 -35 136 -35t132.5 34.5t51.5 112.5h123q0 -76 -21.5 -132t-63.5 -98q-76 -73 -222 -73q-148 0 -223 74q-39 39 -63 96q-11 27 -17 60t-6 73zM700 1178l-204 -627h409zM524 1473h350l531 -1473h-318l-100 303h-571l-97 -303 h-319z" />
<glyph unicode="&#x103;" horiz-adv-x="1151" d="M245 1551h123q0 -35 12.5 -63.5t37.5 -48.5q46 -35 136 -35t132.5 34.5t51.5 112.5h123q0 -76 -21.5 -132t-63.5 -98q-76 -73 -222 -73q-148 0 -223 74q-39 39 -63 96q-11 27 -17 60t-6 73zM750 135q-54 -82 -144 -128t-207 -46q-156 0 -242.5 90.5t-86.5 255.5 q0 153 85 233.5t283 112.5l118 16q185 24 185 107q0 66 -41 94.5t-137 28.5q-88 0 -135 -35t-47 -100v-16h-272v20q0 164 117 261t327 97q228 0 349.5 -78.5t121.5 -228.5v-618q0 -70 13 -101t48 -51v-49h-303q-12 22 -23 62l-6 30zM745 535q-63 -30 -164 -53l-95 -21 q-77 -21 -107.5 -54.5t-30.5 -91.5q0 -60 39.5 -95.5t104.5 -35.5q115 0 184 66t69 182v103z" />
<glyph unicode="&#x104;" horiz-adv-x="1405" d="M799 15q-58 -46 -95 -102q-15 -26 -24 -51q-4 -13 -6 -24t-2 -28q0 -40 20 -60t62 -20h102v-174h-106q-117 0 -177.5 45.5t-60.5 139.5q0 68 45 136q22 31 58 65.5t87 72.5h97zM700 1178l-204 -627h409zM524 1473h350l531 -1473h-318l-100 303h-571l-97 -303h-319z" />
<glyph unicode="&#x105;" horiz-adv-x="1151" d="M496 -24q-58 -46 -95 -102q-15 -26 -24 -51q-4 -13 -6 -24t-2 -28q0 -40 20 -60t62 -20h102v-174h-106q-117 0 -177.5 45.5t-60.5 139.5q0 68 45 136q22 31 58 65.5t87 72.5h97zM750 135q-54 -82 -144 -128t-207 -46q-156 0 -242.5 90.5t-86.5 255.5q0 153 85 233.5 t283 112.5l118 16q185 24 185 107q0 66 -41 94.5t-137 28.5q-88 0 -135 -35t-47 -100v-16h-272v20q0 164 117 261t327 97q228 0 349.5 -78.5t121.5 -228.5v-618q0 -70 13 -101t48 -51v-49h-303q-12 22 -23 62l-6 30zM745 535q-63 -30 -164 -53l-95 -21q-77 -21 -107.5 -54.5 t-30.5 -91.5q0 -60 39.5 -95.5t104.5 -35.5q115 0 184 66t69 182v103z" />
<glyph unicode="&#x106;" horiz-adv-x="1524" d="M1434 506q0 -121 -50.5 -221.5t-143.5 -177.5q-89 -74 -203 -111t-257 -37q-325 0 -507.5 204.5t-182.5 571.5q0 376 185 576t532 200q280 0 445 -138q84 -70 132 -167t48 -221h-299q-18 122 -101.5 189t-224.5 67q-197 0 -304 -129q-51 -65 -77.5 -159t-26.5 -218 q0 -240 103.5 -371t294.5 -131q139 0 225.5 70t114.5 203h297zM1088 1972l-313 -370h-142l197 370h258z" />
<glyph unicode="&#x107;" horiz-adv-x="1128" d="M784 410h287q-18 -207 -150.5 -327t-342.5 -120q-237 0 -371.5 154.5t-134.5 427.5q0 274 138 427.5t378 153.5q210 0 338 -112q66 -57 103 -133q20 -43 30 -85.5t10 -93.5h-289q-12 87 -61 133t-129 46q-108 0 -161.5 -85t-53.5 -255q0 -156 55.5 -241t159.5 -85 q81 0 128.5 47.5t65.5 147.5zM879 1587l-313 -370h-142l197 370h258z" />
<glyph unicode="&#x108;" horiz-adv-x="1524" d="M492 1633l196 370h238l196 -370h-141l-174 217l-176 -217h-139zM1434 506q0 -121 -50.5 -221.5t-143.5 -177.5q-89 -74 -203 -111t-257 -37q-325 0 -507.5 204.5t-182.5 571.5q0 376 185 576t532 200q280 0 445 -138q84 -70 132 -167t48 -221h-299q-18 122 -101.5 189 t-224.5 67q-197 0 -304 -129q-51 -65 -77.5 -159t-26.5 -218q0 -240 103.5 -371t294.5 -131q139 0 225.5 70t114.5 203h297z" />
<glyph unicode="&#x109;" horiz-adv-x="1128" d="M273 1248l196 370h238l196 -370h-141l-174 217l-176 -217h-139zM784 410h287q-18 -207 -150.5 -327t-342.5 -120q-237 0 -371.5 154.5t-134.5 427.5q0 274 138 427.5t378 153.5q210 0 338 -112q66 -57 103 -133q20 -43 30 -85.5t10 -93.5h-289q-12 87 -61 133t-129 46 q-108 0 -161.5 -85t-53.5 -255q0 -156 55.5 -241t159.5 -85q81 0 128.5 47.5t65.5 147.5z" />
<glyph unicode="&#x10a;" horiz-adv-x="1524" d="M689 1633v258h236v-258h-236zM1434 506q0 -121 -50.5 -221.5t-143.5 -177.5q-89 -74 -203 -111t-257 -37q-325 0 -507.5 204.5t-182.5 571.5q0 376 185 576t532 200q280 0 445 -138q84 -70 132 -167t48 -221h-299q-18 122 -101.5 189t-224.5 67q-197 0 -304 -129 q-51 -65 -77.5 -159t-26.5 -218q0 -240 103.5 -371t294.5 -131q139 0 225.5 70t114.5 203h297z" />
<glyph unicode="&#x10b;" horiz-adv-x="1128" d="M470 1248v258h236v-258h-236zM784 410h287q-18 -207 -150.5 -327t-342.5 -120q-237 0 -371.5 154.5t-134.5 427.5q0 274 138 427.5t378 153.5q210 0 338 -112q66 -57 103 -133q20 -43 30 -85.5t10 -93.5h-289q-12 87 -61 133t-129 46q-108 0 -161.5 -85t-53.5 -255 q0 -156 55.5 -241t159.5 -85q81 0 128.5 47.5t65.5 147.5z" />
<glyph unicode="&#x10c;" horiz-adv-x="1524" d="M1434 506q0 -121 -50.5 -221.5t-143.5 -177.5q-89 -74 -203 -111t-257 -37q-325 0 -507.5 204.5t-182.5 571.5q0 376 185 576t532 200q280 0 445 -138q84 -70 132 -167t48 -221h-299q-18 122 -101.5 189t-224.5 67q-197 0 -304 -129q-51 -65 -77.5 -159t-26.5 -218 q0 -240 103.5 -371t294.5 -131q139 0 225.5 70t114.5 203h297zM480 1972h139l176 -219l174 219h141l-196 -370h-238z" />
<glyph unicode="&#x10d;" horiz-adv-x="1128" d="M784 410h287q-18 -207 -150.5 -327t-342.5 -120q-237 0 -371.5 154.5t-134.5 427.5q0 274 138 427.5t378 153.5q210 0 338 -112q66 -57 103 -133q20 -43 30 -85.5t10 -93.5h-289q-12 87 -61 133t-129 46q-108 0 -161.5 -85t-53.5 -255q0 -156 55.5 -241t159.5 -85 q81 0 128.5 47.5t65.5 147.5zM271 1587h139l176 -219l174 219h141l-196 -370h-238z" />
<glyph unicode="&#x10e;" horiz-adv-x="1489" d="M461 2003h139l176 -219l174 219h141l-196 -370h-238zM449 266h243q209 0 304.5 111.5t95.5 357.5q0 247 -87.5 363t-275.5 116h-280v-948zM152 0v1473h577q337 0 504.5 -184t167.5 -554q0 -202 -60.5 -355.5t-179.5 -248.5q-85 -67 -199.5 -99t-314.5 -32h-495z" />
<glyph unicode="&#x10f;" horiz-adv-x="2455" />
<glyph unicode="&#x110;" horiz-adv-x="2455" />
<glyph unicode="&#x111;" horiz-adv-x="1266" d="M1126 1473v-109h140v-162h-140v-1202h-276v147q-62 -93 -141.5 -138.5t-184.5 -45.5q-197 0 -323.5 159.5t-126.5 416.5q0 258 126.5 421.5t319.5 163.5q56 0 99.5 -9.5t87.5 -34.5q80 -42 137 -128v250h-324v162h324v109h282zM365 551q0 -166 61.5 -252t179.5 -86 q116 0 177 87t61 251q0 154 -63.5 237.5t-180.5 83.5q-108 0 -171.5 -86t-63.5 -235z" />
<glyph unicode="&#x112;" horiz-adv-x="1337" d="M399 1633v156h574v-156h-574zM152 0v1473h1069v-256h-770v-314h704v-252h-704v-379h806v-272h-1105z" />
<glyph unicode="&#x113;" horiz-adv-x="1167" d="M293 1248v156h574v-156h-574zM797 330h290q-43 -170 -177 -268.5t-326 -98.5q-234 0 -373 158.5t-139 429.5q0 267 136 421t372 154q249 0 385.5 -151.5t136.5 -431.5l-1 -47v-12q0 -7 -2 -17h-726q0 -63 15 -110t47 -83q57 -65 163 -65q78 0 124.5 29.5t74.5 91.5z M373 658h428q0 105 -57 165t-158 60q-95 0 -150 -58q-28 -29 -45.5 -72t-17.5 -95z" />
<glyph unicode="&#x114;" horiz-adv-x="1337" d="M379 1936h123q0 -35 12.5 -63.5t37.5 -48.5q46 -35 136 -35t132.5 34.5t51.5 112.5h123q0 -76 -21.5 -132t-63.5 -98q-76 -73 -222 -73q-148 0 -223 74q-39 39 -63 96q-11 27 -17 60t-6 73zM152 0v1473h1069v-256h-770v-314h704v-252h-704v-379h806v-272h-1105z" />
<glyph unicode="&#x115;" horiz-adv-x="1167" d="M272 1551h123q0 -35 12.5 -63.5t37.5 -48.5q46 -35 136 -35t132.5 34.5t51.5 112.5h123q0 -76 -21.5 -132t-63.5 -98q-76 -73 -222 -73q-148 0 -223 74q-39 39 -63 96q-11 27 -17 60t-6 73zM797 330h290q-43 -170 -177 -268.5t-326 -98.5q-234 0 -373 158.5t-139 429.5 q0 267 136 421t372 154q249 0 385.5 -151.5t136.5 -431.5l-1 -47v-12q0 -7 -2 -17h-726q0 -63 15 -110t47 -83q57 -65 163 -65q78 0 124.5 29.5t74.5 91.5zM373 658h428q0 105 -57 165t-158 60q-95 0 -150 -58q-28 -29 -45.5 -72t-17.5 -95z" />
<glyph unicode="&#x116;" horiz-adv-x="1337" d="M569 1633v258h236v-258h-236zM152 0v1473h1069v-256h-770v-314h704v-252h-704v-379h806v-272h-1105z" />
<glyph unicode="&#x117;" horiz-adv-x="1167" d="M462 1248v258h236v-258h-236zM797 330h290q-43 -170 -177 -268.5t-326 -98.5q-234 0 -373 158.5t-139 429.5q0 267 136 421t372 154q249 0 385.5 -151.5t136.5 -431.5l-1 -47v-12q0 -7 -2 -17h-726q0 -63 15 -110t47 -83q57 -65 163 -65q78 0 124.5 29.5t74.5 91.5z M373 658h428q0 105 -57 165t-158 60q-95 0 -150 -58q-28 -29 -45.5 -72t-17.5 -95z" />
<glyph unicode="&#x118;" horiz-adv-x="1337" d="M801 15q-58 -46 -95 -102q-15 -26 -24 -51q-4 -13 -6 -24t-2 -28q0 -40 20 -60t62 -20h102v-174h-106q-117 0 -177.5 45.5t-60.5 139.5q0 68 45 136q22 31 58 65.5t87 72.5h97zM152 0v1473h1069v-256h-770v-314h704v-252h-704v-379h806v-272h-1105z" />
<glyph unicode="&#x119;" horiz-adv-x="1167" d="M633 -22q-58 -46 -95 -102q-15 -26 -24 -51q-4 -13 -6 -24t-2 -28q0 -40 20 -60t62 -20h102v-174h-106q-117 0 -177.5 45.5t-60.5 139.5q0 68 45 136q22 31 58 65.5t87 72.5h97zM797 330h290q-43 -170 -177 -268.5t-326 -98.5q-234 0 -373 158.5t-139 429.5 q0 267 136 421t372 154q249 0 385.5 -151.5t136.5 -431.5l-1 -47v-12q0 -7 -2 -17h-726q0 -63 15 -110t47 -83q57 -65 163 -65q78 0 124.5 29.5t74.5 91.5zM373 658h428q0 105 -57 165t-158 60q-95 0 -150 -58q-28 -29 -45.5 -72t-17.5 -95z" />
<glyph unicode="&#x11a;" horiz-adv-x="1337" d="M371 2003h139l176 -219l174 219h141l-196 -370h-238zM152 0v1473h1069v-256h-770v-314h704v-252h-704v-379h806v-272h-1105z" />
<glyph unicode="&#x11b;" horiz-adv-x="1167" d="M265 1618h139l176 -219l174 219h141l-196 -370h-238zM797 330h290q-43 -170 -177 -268.5t-326 -98.5q-234 0 -373 158.5t-139 429.5q0 267 136 421t372 154q249 0 385.5 -151.5t136.5 -431.5l-1 -47v-12q0 -7 -2 -17h-726q0 -63 15 -110t47 -83q57 -65 163 -65 q78 0 124.5 29.5t74.5 91.5zM373 658h428q0 105 -57 165t-158 60q-95 0 -150 -58q-28 -29 -45.5 -72t-17.5 -95z" />
<glyph unicode="&#x11c;" horiz-adv-x="1591" d="M473 1633l196 370h238l196 -370h-141l-174 217l-176 -217h-139zM1212 174q-81 -111 -187 -163q-53 -26 -114.5 -39t-130.5 -13q-309 0 -500.5 214.5t-191.5 563.5q0 177 47 316t144 246q191 212 509 212q276 0 450 -132t210 -365h-309q-27 114 -114.5 174.5t-225.5 60.5 q-185 0 -290.5 -135.5t-105.5 -374.5q0 -240 110 -376t302 -136q144 0 239.5 83.5t121.5 234.5h-334v252h610v-797h-203z" />
<glyph unicode="&#x11d;" horiz-adv-x="1249" d="M215 1248l196 370h238l196 -370h-141l-174 217l-176 -217h-139zM365 561q0 -153 61.5 -235t175.5 -82t175 82t61 239q0 146 -62.5 229t-177.5 83q-110 0 -172 -84q-29 -40 -45 -99.5t-16 -132.5zM102 -105l318 1q12 -53 57 -81t117 -28q135 0 189 58q27 29 41 81.5 t14 130.5v97q-44 -77 -119 -115.5t-184 -38.5q-208 0 -336.5 150.5t-128.5 400.5q0 264 124.5 419.5t335.5 155.5q107 0 186 -42t128 -128v131h276v-1015q0 -176 -31 -263.5t-110 -148.5q-63 -48 -167 -76q-53 -14 -108.5 -21t-123.5 -7q-218 0 -343 89q-64 44 -99.5 107 t-35.5 143z" />
<glyph unicode="&#x11e;" horiz-adv-x="1591" d="M1212 174q-81 -111 -187 -163q-53 -26 -114.5 -39t-130.5 -13q-309 0 -500.5 214.5t-191.5 563.5q0 177 47 316t144 246q191 212 509 212q276 0 450 -132t210 -365h-309q-27 114 -114.5 174.5t-225.5 60.5q-185 0 -290.5 -135.5t-105.5 -374.5q0 -240 110 -376t302 -136 q144 0 239.5 83.5t121.5 234.5h-334v252h610v-797h-203zM488 1937h123q0 -35 12.5 -63.5t37.5 -48.5q46 -35 136 -35t132.5 34.5t51.5 112.5h123q0 -76 -21.5 -132t-63.5 -98q-76 -73 -222 -73q-148 0 -223 74q-39 39 -63 96q-11 27 -17 60t-6 73z" />
<glyph unicode="&#x11f;" horiz-adv-x="1249" d="M365 561q0 -153 61.5 -235t175.5 -82t175 82t61 239q0 146 -62.5 229t-177.5 83q-110 0 -172 -84q-29 -40 -45 -99.5t-16 -132.5zM102 -105l318 1q12 -53 57 -81t117 -28q135 0 189 58q27 29 41 81.5t14 130.5v97q-44 -77 -119 -115.5t-184 -38.5q-208 0 -336.5 150.5 t-128.5 400.5q0 264 124.5 419.5t335.5 155.5q107 0 186 -42t128 -128v131h276v-1015q0 -176 -31 -263.5t-110 -148.5q-63 -48 -167 -76q-53 -14 -108.5 -21t-123.5 -7q-218 0 -343 89q-64 44 -99.5 107t-35.5 143zM316 1552h123q0 -35 12.5 -63.5t37.5 -48.5 q46 -35 136 -35t132.5 34.5t51.5 112.5h123q0 -76 -21.5 -132t-63.5 -98q-76 -73 -222 -73q-148 0 -223 74q-39 39 -63 96q-11 27 -17 60t-6 73z" />
<glyph unicode="&#x120;" horiz-adv-x="1591" d="M670 1633v258h236v-258h-236zM1212 174q-81 -111 -187 -163q-53 -26 -114.5 -39t-130.5 -13q-309 0 -500.5 214.5t-191.5 563.5q0 177 47 316t144 246q191 212 509 212q276 0 450 -132t210 -365h-309q-27 114 -114.5 174.5t-225.5 60.5q-185 0 -290.5 -135.5 t-105.5 -374.5q0 -240 110 -376t302 -136q144 0 239.5 83.5t121.5 234.5h-334v252h610v-797h-203z" />
<glyph unicode="&#x121;" horiz-adv-x="1249" d="M412 1248v258h236v-258h-236zM365 561q0 -153 61.5 -235t175.5 -82t175 82t61 239q0 146 -62.5 229t-177.5 83q-110 0 -172 -84q-29 -40 -45 -99.5t-16 -132.5zM102 -105l318 1q12 -53 57 -81t117 -28q135 0 189 58q27 29 41 81.5t14 130.5v97q-44 -77 -119 -115.5 t-184 -38.5q-208 0 -336.5 150.5t-128.5 400.5q0 264 124.5 419.5t335.5 155.5q107 0 186 -42t128 -128v131h276v-1015q0 -176 -31 -263.5t-110 -148.5q-63 -48 -167 -76q-53 -14 -108.5 -21t-123.5 -7q-218 0 -343 89q-64 44 -99.5 107t-35.5 143z" />
<glyph unicode="&#x122;" horiz-adv-x="1591" d="M629 -810v117q84 24 124 74q20 24 30 57t10 73v25h-164v301h303v-289q0 -151 -75.5 -240.5t-227.5 -117.5zM1212 174q-81 -111 -187 -163q-53 -26 -114.5 -39t-130.5 -13q-309 0 -500.5 214.5t-191.5 563.5q0 177 47 316t144 246q191 212 509 212q276 0 450 -132 t210 -365h-309q-27 114 -114.5 174.5t-225.5 60.5q-185 0 -290.5 -135.5t-105.5 -374.5q0 -240 110 -376t302 -136q144 0 239.5 83.5t121.5 234.5h-334v252h610v-797h-203z" />
<glyph unicode="&#x124;" horiz-adv-x="1522" d="M446 1633l196 370h238l196 -370h-141l-174 217l-176 -217h-139zM152 0v1473h305v-549h608v549h305v-1473h-305v653h-608v-653h-305z" />
<glyph unicode="&#x125;" horiz-adv-x="1233" d="M303 1595l196 370h238l196 -370h-141l-174 217l-176 -217h-139zM133 0v1473h289v-506q59 74 140.5 111.5t182.5 37.5q93 0 172.5 -33t126.5 -94q31 -38 45.5 -94t14.5 -170v-20v-705h-289v569q0 201 -37 253t-133 52q-102 0 -162.5 -60.5t-60.5 -168.5v-645h-289z" />
<glyph unicode="&#x128;" horiz-adv-x="629" d="M631 1907q-26 -125 -77 -184.5t-131 -59.5h-15h-12l-12 2l-36 9l-87 26l-35 7l-31 3q-31 0 -53 -18t-35 -59h-110q24 121 74 178t130 57q25 0 42 -4q22 -3 44 -10l93 -25l25 -6l30 -2q29 0 51 21t35 65h110zM162 0v1473h303v-1473h-303z" />
<glyph unicode="&#x129;" horiz-adv-x="557" d="M595 1522q-26 -125 -77 -184.5t-131 -59.5h-15h-12l-12 2l-36 9l-87 26l-35 7l-31 3q-31 0 -53 -18t-35 -59h-110q24 121 74 178t130 57q25 0 42 -4q22 -3 44 -10l93 -25l25 -6l30 -2q29 0 51 21t35 65h110zM133 0v1087h291v-1087h-291z" />
<glyph unicode="&#x12a;" horiz-adv-x="629" d="M27 1633v156h574v-156h-574zM162 0v1473h303v-1473h-303z" />
<glyph unicode="&#x12b;" horiz-adv-x="557" d="M-9 1248v156h574v-156h-574zM133 0v1087h291v-1087h-291z" />
<glyph unicode="&#x12c;" horiz-adv-x="629" d="M5 1936h123q0 -35 12.5 -63.5t37.5 -48.5q46 -35 136 -35t132.5 34.5t51.5 112.5h123q0 -76 -21.5 -132t-63.5 -98q-76 -73 -222 -73q-148 0 -223 74q-39 39 -63 96q-11 27 -17 60t-6 73zM162 0v1473h303v-1473h-303z" />
<glyph unicode="&#x12d;" horiz-adv-x="557" d="M-29 1551h123q0 -35 12.5 -63.5t37.5 -48.5q46 -35 136 -35t132.5 34.5t51.5 112.5h123q0 -76 -21.5 -132t-63.5 -98q-76 -73 -222 -73q-148 0 -223 74q-39 39 -63 96q-11 27 -17 60t-6 73zM133 0v1087h291v-1087h-291z" />
<glyph unicode="&#x12e;" horiz-adv-x="629" d="M362 15q-58 -46 -95 -102q-15 -26 -24 -51q-4 -13 -6 -24t-2 -28q0 -40 20 -60t62 -20h102v-174h-106q-117 0 -177.5 45.5t-60.5 139.5q0 68 45 136q22 31 58 65.5t87 72.5h97zM162 0v1473h303v-1473h-303z" />
<glyph unicode="&#x12f;" horiz-adv-x="557" d="M327 15q-58 -46 -95 -102q-15 -26 -24 -51q-4 -13 -6 -24t-2 -28q0 -40 20 -60t62 -20h102v-174h-106q-117 0 -177.5 45.5t-60.5 139.5q0 68 45 136q22 31 58 65.5t87 72.5h97zM133 1208v265h291v-265h-291zM133 0v1087h291v-1087h-291z" />
<glyph unicode="&#x130;" horiz-adv-x="629" d="M162 0v1473h303v-1473h-303zM198 1655v258h236v-258h-236z" />
<glyph unicode="&#x131;" horiz-adv-x="557" d="M133 0v1087h291v-1087h-291z" />
<glyph unicode="&#x132;" horiz-adv-x="1762" d="M678 549h293v-178q0 -75 46 -116.5t132 -41.5q91 0 129.5 49t38.5 184v1027h303v-1041q0 -142 -15.5 -205.5t-55.5 -115.5q-55 -72 -158 -112q-52 -20 -110 -30t-128 -10q-126 0 -222.5 33.5t-158.5 101.5q-50 53 -72 120.5t-22 219.5v115zM162 0v1473h303v-1473h-303z " />
<glyph unicode="&#x133;" horiz-adv-x="1112" d="M690 1208v262h291v-262h-291zM563 -444v243h57q34 0 52 17.5t18 56.5v1214h291v-1261q0 -144 -81.5 -207t-281.5 -63h-55zM133 1208v265h291v-265h-291zM133 0v1087h291v-1087h-291z" />
<glyph unicode="&#x134;" horiz-adv-x="1133" d="M525 1633l196 370h238l196 -370h-141l-174 217l-176 -217h-139zM49 549h293v-178q0 -75 46 -116.5t132 -41.5q91 0 129.5 49t38.5 184v1027h303v-1041q0 -142 -15.5 -205.5t-55.5 -115.5q-55 -72 -158 -112q-52 -20 -110 -30t-128 -10q-126 0 -222.5 33.5t-158.5 101.5 q-50 53 -72 120.5t-22 219.5v115z" />
<glyph unicode="&#x135;" horiz-adv-x="555" d="M-37 1592l196 370h238l196 -370h-141l-174 217l-176 -217h-139zM133 1208v262h291v-262h-291zM6 -444v243h57q34 0 52 17.5t18 56.5v1214h291v-1261q0 -144 -81.5 -207t-281.5 -63h-55z" />
<glyph unicode="&#x136;" horiz-adv-x="1440" d="M655 -769v117q84 24 124 74q20 24 30 57t10 73v25h-164v301h303v-289q0 -151 -75.5 -240.5t-227.5 -117.5zM152 0v1473h303v-605l575 605h379l-588 -596l641 -877h-370l-480 674l-157 -156v-518h-303z" />
<glyph unicode="&#x137;" horiz-adv-x="1135" d="M483 -769v117q84 24 124 74q20 24 30 57t10 73v25h-164v301h303v-289q0 -151 -75.5 -240.5t-227.5 -117.5zM133 0v1473h283v-773l346 387h350l-379 -403l402 -684h-349l-260 463l-110 -119v-344h-283z" />
<glyph unicode="&#x139;" horiz-adv-x="1188" d="M1047 2003l-313 -370h-142l197 370h258zM152 0v1473h303v-1201h719v-272h-1022z" />
<glyph unicode="&#x13a;" horiz-adv-x="563" d="M667 1965l-313 -370h-142l197 370h258zM137 0v1473h291v-1473h-291z" />
<glyph unicode="&#x13b;" horiz-adv-x="1188" d="M511 -769v117q84 24 124 74q20 24 30 57t10 73v25h-164v301h303v-289q0 -151 -75.5 -240.5t-227.5 -117.5zM152 0v1473h303v-1201h719v-272h-1022z" />
<glyph unicode="&#x13c;" horiz-adv-x="563" d="M131 -769v117q84 24 124 74q20 24 30 57t10 73v25h-164v301h303v-289q0 -151 -75.5 -240.5t-227.5 -117.5zM137 0v1473h291v-1473h-291z" />
<glyph unicode="&#x13d;" horiz-adv-x="1188" d="M1357 864v117q84 24 124 74q20 24 30 57t10 73v25h-164v301h303v-289q0 -151 -75.5 -240.5t-227.5 -117.5zM152 0v1473h303v-1201h719v-272h-1022z" />
<glyph unicode="&#x13e;" horiz-adv-x="563" d="M611 826v117q84 24 124 74q20 24 30 57t10 73v25h-164v301h303v-289q0 -151 -75.5 -240.5t-227.5 -117.5zM137 0v1473h291v-1473h-291z" />
<glyph unicode="&#x141;" horiz-adv-x="1196" d="M162 0v547l-115 -80l-110 160l225 155v691h303v-510l336 235l112 -158l-448 -313v-455h719v-272h-1022z" />
<glyph unicode="&#x142;" horiz-adv-x="575" d="M143 0v559l-104 -78l-102 135l206 156v701h291v-527l103 78l104 -135l-207 -154v-735h-291z" />
<glyph unicode="&#x143;" horiz-adv-x="1518" d="M1143 2003l-313 -370h-142l197 370h258zM152 0v1473h317l598 -1012v1012h299v-1473h-313l-602 1012v-1012h-299z" />
<glyph unicode="&#x144;" d="M997 1618l-313 -370h-142l197 370h258zM127 0v1087h285v-129q58 76 144 118q42 20 87 30q21 4 47 7t51 3q178 0 268.5 -93.5t90.5 -281.5v-741h-291v657q0 117 -39.5 167t-128.5 50q-102 0 -162.5 -60.5t-60.5 -168.5v-645h-291z" />
<glyph unicode="&#x145;" horiz-adv-x="1518" d="M607 -769v117q84 24 124 74q20 24 30 57t10 73v25h-164v301h303v-289q0 -151 -75.5 -240.5t-227.5 -117.5zM152 0v1473h317l598 -1012v1012h299v-1473h-313l-602 1012v-1012h-299z" />
<glyph unicode="&#x146;" d="M462 -769v117q84 24 124 74q20 24 30 57t10 73v25h-164v301h303v-289q0 -151 -75.5 -240.5t-227.5 -117.5zM127 0v1087h285v-129q58 76 144 118q42 20 87 30q21 4 47 7t51 3q178 0 268.5 -93.5t90.5 -281.5v-741h-291v657q0 117 -39.5 167t-128.5 50q-102 0 -162.5 -60.5 t-60.5 -168.5v-645h-291z" />
<glyph unicode="&#x147;" horiz-adv-x="1518" d="M444 2003h139l176 -219l174 219h141l-196 -370h-238zM152 0v1473h317l598 -1012v1012h299v-1473h-313l-602 1012v-1012h-299z" />
<glyph unicode="&#x148;" d="M299 1618h139l176 -219l174 219h141l-196 -370h-238zM127 0v1087h285v-129q58 76 144 118q42 20 87 30q21 4 47 7t51 3q178 0 268.5 -93.5t90.5 -281.5v-741h-291v657q0 117 -39.5 167t-128.5 50q-102 0 -162.5 -60.5t-60.5 -168.5v-645h-291z" />
<glyph unicode="&#x14c;" horiz-adv-x="1616" d="M520 1633v156h574v-156h-574zM397 735q0 -243 108 -377.5t302 -134.5t304 135.5t110 376.5q0 243 -108.5 377.5t-305.5 134.5q-192 0 -301 -134t-109 -378zM88 735q0 357 194.5 566.5t524.5 209.5t525 -210q98 -105 147 -247t49 -319q0 -354 -195.5 -565t-525.5 -211 t-524.5 210.5t-194.5 565.5z" />
<glyph unicode="&#x14d;" horiz-adv-x="1245" d="M336 1248v156h574v-156h-574zM367 545q0 -160 66 -250q34 -44 81.5 -66t108.5 -22q120 0 187 88t67 250q0 159 -66.5 247.5t-187.5 88.5q-123 0 -189.5 -87.5t-66.5 -248.5zM72 545q0 269 147 425t404 156q254 0 402.5 -156t148.5 -425q0 -272 -147.5 -427t-403.5 -155 q-255 0 -403 155t-148 427z" />
<glyph unicode="&#x14e;" horiz-adv-x="1616" d="M499 1936h123q0 -35 12.5 -63.5t37.5 -48.5q46 -35 136 -35t132.5 34.5t51.5 112.5h123q0 -76 -21.5 -132t-63.5 -98q-76 -73 -222 -73q-148 0 -223 74q-39 39 -63 96q-11 27 -17 60t-6 73zM397 735q0 -243 108 -377.5t302 -134.5t304 135.5t110 376.5 q0 243 -108.5 377.5t-305.5 134.5q-192 0 -301 -134t-109 -378zM88 735q0 357 194.5 566.5t524.5 209.5t525 -210q98 -105 147 -247t49 -319q0 -354 -195.5 -565t-525.5 -211t-524.5 210.5t-194.5 565.5z" />
<glyph unicode="&#x14f;" horiz-adv-x="1245" d="M315 1551h123q0 -35 12.5 -63.5t37.5 -48.5q46 -35 136 -35t132.5 34.5t51.5 112.5h123q0 -76 -21.5 -132t-63.5 -98q-76 -73 -222 -73q-148 0 -223 74q-39 39 -63 96q-11 27 -17 60t-6 73zM367 545q0 -160 66 -250q34 -44 81.5 -66t108.5 -22q120 0 187 88t67 250 q0 159 -66.5 247.5t-187.5 88.5q-123 0 -189.5 -87.5t-66.5 -248.5zM72 545q0 269 147 425t404 156q254 0 402.5 -156t148.5 -425q0 -272 -147.5 -427t-403.5 -155q-255 0 -403 155t-148 427z" />
<glyph unicode="&#x152;" horiz-adv-x="2310" d="M1130 0v102q-84 -69 -182 -106t-211 -37q-287 0 -468 213t-181 563t180 564t471 214q116 0 208.5 -34t182.5 -109v103h1063v-256h-770v-314h705v-252h-705v-379h807v-272h-1100zM1130 346v778q-70 68 -150 102t-173 34q-202 0 -306 -133t-104 -392q0 -258 103.5 -390 t306.5 -132q96 0 173.5 33t149.5 100z" />
<glyph unicode="&#x153;" horiz-adv-x="1948" d="M1137 660h444q0 57 -16 99q-15 44 -46 76q-57 62 -163 62q-96 0 -157 -65q-29 -32 -45.5 -76.5t-16.5 -95.5zM362 553q0 -165 67.5 -259.5t184.5 -94.5q129 0 199 93t70 263q0 156 -68.5 247t-189.5 91q-126 0 -194.5 -88t-68.5 -252zM995 123q-65 -80 -160 -120 q-49 -20 -102.5 -30t-120.5 -10q-255 0 -396.5 155t-141.5 435q0 267 144 420t398 153q133 0 229.5 -39.5t162.5 -121.5q58 81 149.5 121t220.5 40q235 0 366.5 -154t131.5 -429l-1 -47v-12q0 -7 -2 -17h-736q0 -125 58.5 -194.5t162.5 -69.5q79 0 132.5 29.5t82.5 91.5h289 q-30 -161 -171 -261t-339 -100q-119 0 -202.5 38.5t-154.5 121.5z" />
<glyph unicode="&#x154;" horiz-adv-x="1462" d="M893 2003l-313 -370h-142l197 370h258zM455 829h356q116 0 170.5 47t54.5 148q0 96 -53 145.5t-158 49.5h-370v-390zM152 0v1473h714q241 0 357 -102.5t116 -315.5q0 -137 -56 -226t-163 -122q96 -33 136 -104q20 -36 33.5 -91t13.5 -127l6 -174v-6q0 -67 14.5 -105.5 t42.5 -54.5v-45h-332q-13 27 -25 76l-8 52l-2 57l-4 155q0 35 -3 61.5t-11 51.5q-12 48 -38 72q-45 48 -167 48h-321v-573h-303z" />
<glyph unicode="&#x155;" horiz-adv-x="786" d="M825 1618l-313 -370h-142l197 370h258zM127 0v1087h270v-186q55 109 132 163t182 54l26 -1l16 -1l1 -295h-97q-117 0 -178 -62t-61 -184v-575h-291z" />
<glyph unicode="&#x156;" horiz-adv-x="1462" d="M607 -769v117q84 24 124 74q20 24 30 57t10 73v25h-164v301h303v-289q0 -151 -75.5 -240.5t-227.5 -117.5zM455 829h356q116 0 170.5 47t54.5 148q0 96 -53 145.5t-158 49.5h-370v-390zM152 0v1473h714q241 0 357 -102.5t116 -315.5q0 -137 -56 -226t-163 -122 q96 -33 136 -104q20 -36 33.5 -91t13.5 -127l6 -174v-6q0 -67 14.5 -105.5t42.5 -54.5v-45h-332q-13 27 -25 76l-8 52l-2 57l-4 155q0 35 -3 61.5t-11 51.5q-12 48 -38 72q-45 48 -167 48h-321v-573h-303z" />
<glyph unicode="&#x157;" horiz-adv-x="786" d="M121 -769v117q84 24 124 74q20 24 30 57t10 73v25h-164v301h303v-289q0 -151 -75.5 -240.5t-227.5 -117.5zM127 0v1087h270v-186q55 109 132 163t182 54l26 -1l16 -1l1 -295h-97q-117 0 -178 -62t-61 -184v-575h-291z" />
<glyph unicode="&#x158;" horiz-adv-x="1462" d="M194 2003h139l176 -219l174 219h141l-196 -370h-238zM455 829h356q116 0 170.5 47t54.5 148q0 96 -53 145.5t-158 49.5h-370v-390zM152 0v1473h714q241 0 357 -102.5t116 -315.5q0 -137 -56 -226t-163 -122q96 -33 136 -104q20 -36 33.5 -91t13.5 -127l6 -174v-6 q0 -67 14.5 -105.5t42.5 -54.5v-45h-332q-13 27 -25 76l-8 52l-2 57l-4 155q0 35 -3 61.5t-11 51.5q-12 48 -38 72q-45 48 -167 48h-321v-573h-303z" />
<glyph unicode="&#x159;" horiz-adv-x="786" d="M125 1618h139l176 -219l174 219h141l-196 -370h-238zM127 0v1087h270v-186q55 109 132 163t182 54l26 -1l16 -1l1 -295h-97q-117 0 -178 -62t-61 -184v-575h-291z" />
<glyph unicode="&#x15a;" horiz-adv-x="1366" d="M1058 2005l-313 -370h-142l197 370h258zM84 455h299q16 -119 98.5 -178.5t237.5 -59.5q133 0 199.5 47t66.5 139q0 134 -385 222q-7 0 -9 2l-31 7q-209 45 -294 101q-76 48 -118 133.5t-42 200.5q0 213 147 328.5t421 115.5q259 0 403 -122q74 -62 114 -148 q20 -44 30 -91.5t10 -104.5h-291q0 50 -20.5 90.5t-61.5 72.5q-74 56 -211 56q-119 0 -183.5 -46.5t-64.5 -132.5q0 -117 251 -175l106 -25q168 -43 231 -64t115 -51q90 -49 135 -131t45 -199q0 -230 -155 -356.5t-437 -126.5q-275 0 -436 129q-79 65 -124.5 158t-45.5 209z " />
<glyph unicode="&#x15b;" horiz-adv-x="1118" d="M929 1618l-313 -370h-142l197 370h258zM66 354h290q0 -79 59 -121.5t169 -42.5q84 0 131 28.5t47 80.5q0 72 -174 111l-48 10l-65 16q-212 54 -294.5 128t-82.5 200q0 165 120.5 263.5t326.5 98.5q218 0 342 -97q65 -50 99 -118t34 -155h-283q0 66 -51.5 105.5 t-138.5 39.5q-83 0 -123.5 -25t-40.5 -75q0 -63 217 -115l79 -18q214 -51 295 -123t81 -203q0 -185 -130.5 -282t-379.5 -97q-225 0 -352 101t-127 278v12z" />
<glyph unicode="&#x15c;" horiz-adv-x="1366" d="M359 1635l196 370h238l196 -370h-141l-174 217l-176 -217h-139zM84 455h299q16 -119 98.5 -178.5t237.5 -59.5q133 0 199.5 47t66.5 139q0 134 -385 222q-7 0 -9 2l-31 7q-209 45 -294 101q-76 48 -118 133.5t-42 200.5q0 213 147 328.5t421 115.5q259 0 403 -122 q74 -62 114 -148q20 -44 30 -91.5t10 -104.5h-291q0 50 -20.5 90.5t-61.5 72.5q-74 56 -211 56q-119 0 -183.5 -46.5t-64.5 -132.5q0 -117 251 -175l106 -25q168 -43 231 -64t115 -51q90 -49 135 -131t45 -199q0 -230 -155 -356.5t-437 -126.5q-275 0 -436 129 q-79 65 -124.5 158t-45.5 209z" />
<glyph unicode="&#x15d;" horiz-adv-x="1118" d="M230 1248l196 370h238l196 -370h-141l-174 217l-176 -217h-139zM66 354h290q0 -79 59 -121.5t169 -42.5q84 0 131 28.5t47 80.5q0 72 -174 111l-48 10l-65 16q-212 54 -294.5 128t-82.5 200q0 165 120.5 263.5t326.5 98.5q218 0 342 -97q65 -50 99 -118t34 -155h-283 q0 66 -51.5 105.5t-138.5 39.5q-83 0 -123.5 -25t-40.5 -75q0 -63 217 -115l79 -18q214 -51 295 -123t81 -203q0 -185 -130.5 -282t-379.5 -97q-225 0 -352 101t-127 278v12z" />
<glyph unicode="&#x15e;" horiz-adv-x="1366" d="M633 -40q-114 0 -208.5 33.5t-170.5 94.5q-79 65 -124.5 158t-45.5 209h299q16 -119 98.5 -178.5t237.5 -59.5q133 0 199.5 47t66.5 139q0 134 -385 222q-7 0 -9 2l-31 7q-209 45 -294 101q-76 48 -118 133.5t-42 200.5q0 213 147 328.5t421 115.5q259 0 403 -122 q74 -62 114 -148q20 -44 30 -91.5t10 -104.5h-291q0 50 -20.5 90.5t-61.5 72.5q-74 56 -211 56q-119 0 -183.5 -46.5t-64.5 -132.5q0 -117 251 -175l106 -25q168 -43 231 -64t115 -51q90 -49 135 -131t45 -199q0 -230 -155 -357q-70 -57 -170.5 -91t-221.5 -34v-50h15 q115 0 175 -48t60 -143q0 -98 -66.5 -149t-197.5 -51q-62 0 -120 11l-33 5q-13 2 -37 8l-76 19v129l64 -15q38 -9 92 -18q24 -4 52 -7t48 -3q49 0 74.5 17.5t25.5 55.5t-29 54t-92 16h-35q-17 0 -22 -2v171z" />
<glyph unicode="&#x15f;" horiz-adv-x="1118" d="M508 -36q-98 0 -175 24.5t-140 75.5q-127 101 -127 278v12h290q0 -79 59 -121.5t169 -42.5q84 0 131 28.5t47 80.5q0 72 -174 111l-48 10l-65 16q-212 54 -294.5 128t-82.5 200q0 165 120.5 263.5t326.5 98.5q218 0 342 -97q65 -50 99 -118t34 -155h-283 q0 66 -51.5 105.5t-138.5 39.5q-83 0 -123.5 -25t-40.5 -75q0 -63 217 -115l79 -18q214 -51 295 -123t81 -203q0 -185 -131 -282q-57 -42 -138 -69q-37 -12 -82 -19t-94 -7v-55h15q115 0 175 -48t60 -143q0 -98 -66.5 -149t-197.5 -51q-62 0 -120 11l-33 5q-13 2 -37 8 l-76 19v129l64 -15q38 -9 92 -18q24 -4 52 -7t48 -3q49 0 74.5 17.5t25.5 55.5t-29 54t-92 16h-35q-17 0 -22 -2v175z" />
<glyph unicode="&#x160;" horiz-adv-x="1366" d="M84 455h299q16 -119 98.5 -178.5t237.5 -59.5q133 0 199.5 47t66.5 139q0 134 -385 222q-7 0 -9 2l-31 7q-209 45 -294 101q-76 48 -118 133.5t-42 200.5q0 213 147 328.5t421 115.5q259 0 403 -122q74 -62 114 -148q20 -44 30 -91.5t10 -104.5h-291q0 50 -20.5 90.5 t-61.5 72.5q-74 56 -211 56q-119 0 -183.5 -46.5t-64.5 -132.5q0 -117 251 -175l106 -25q168 -43 231 -64t115 -51q90 -49 135 -131t45 -199q0 -230 -155 -356.5t-437 -126.5q-275 0 -436 129q-79 65 -124.5 158t-45.5 209zM369 1972h139l176 -219l174 219h141l-196 -370 h-238z" />
<glyph unicode="&#x161;" horiz-adv-x="1118" d="M66 354h290q0 -79 59 -121.5t169 -42.5q84 0 131 28.5t47 80.5q0 72 -174 111l-48 10l-65 16q-212 54 -294.5 128t-82.5 200q0 165 120.5 263.5t326.5 98.5q218 0 342 -97q65 -50 99 -118t34 -155h-283q0 66 -51.5 105.5t-138.5 39.5q-83 0 -123.5 -25t-40.5 -75 q0 -63 217 -115l79 -18q214 -51 295 -123t81 -203q0 -185 -130.5 -282t-379.5 -97q-225 0 -352 101t-127 278v12zM244 1587h139l176 -219l174 219h141l-196 -370h-238z" />
<glyph unicode="&#x162;" horiz-adv-x="1217" d="M379 -422v129l64 -15q38 -9 92 -18q24 -4 52 -7t48 -3q49 0 74.5 17.5t25.5 55.5t-29 54t-92 16h-35q-17 0 -22 -2v211h102v-90h15q115 0 175 -48t60 -143q0 -98 -66.5 -149t-197.5 -51q-62 0 -120 11l-33 5q-13 2 -37 8zM457 0v1210h-437v263h1174v-263h-434v-1210h-303 z" />
<glyph unicode="&#x163;" horiz-adv-x="651" d="M215 -436v129l64 -15q38 -9 92 -18q24 -4 52 -7t48 -3q49 0 74.5 17.5t25.5 55.5t-29 54t-92 16h-35q-17 0 -22 -2v211h102v-90h15q115 0 175 -48t60 -143q0 -98 -66.5 -149t-197.5 -51q-62 0 -120 11l-33 5q-13 2 -37 8zM610 -8l-96 -3l-70 -3q-166 0 -228 63.5 t-62 245.5v588h-144v204h144v297h288v-297h168v-204h-168v-602q0 -42 19 -57q21 -13 78 -13h71v-219z" />
<glyph unicode="&#x164;" horiz-adv-x="1217" d="M292 2003h139l176 -219l174 219h141l-196 -370h-238zM457 0v1210h-437v263h1174v-263h-434v-1210h-303z" />
<glyph unicode="&#x165;" horiz-adv-x="651" d="M625 737v117q84 24 124 74q20 24 30 57t10 73v25h-164v301h303v-289q0 -151 -75.5 -240.5t-227.5 -117.5zM610 -8l-96 -3l-70 -3q-166 0 -228 63.5t-62 245.5v588h-144v204h144v297h288v-297h168v-204h-168v-602q0 -42 19 -57q21 -13 78 -13h71v-219z" />
<glyph unicode="&#x168;" horiz-adv-x="1468" d="M1050 1907q-26 -125 -77 -184.5t-131 -59.5h-15h-12l-12 2l-36 9l-87 26l-35 7l-31 3q-31 0 -53 -18t-35 -59h-110q24 121 74 178t130 57q25 0 42 -4q22 -3 44 -10l93 -25l25 -6l30 -2q29 0 51 21t35 65h110zM143 1477h306v-924q0 -172 68 -250t216 -78q147 0 217 78 t70 250v924h303v-957q0 -270 -151.5 -415.5t-436.5 -145.5q-284 0 -438 144t-154 417v957z" />
<glyph unicode="&#x169;" d="M927 1522q-26 -125 -77 -184.5t-131 -59.5h-15h-12l-12 2l-36 9l-87 26l-35 7l-31 3q-31 0 -53 -18t-35 -59h-110q24 121 74 178t130 57q25 0 42 -4q22 -3 44 -10l93 -25l25 -6l30 -2q29 0 51 21t35 65h110zM1096 1087v-1087h-285v129q-59 -76 -143 -117t-187 -41 q-177 0 -267.5 93.5t-90.5 281.5v741h291v-657q0 -114 39 -164.5t129 -50.5q103 0 163 62.5t60 166.5v643h291z" />
<glyph unicode="&#x16a;" horiz-adv-x="1468" d="M446 1633v156h574v-156h-574zM143 1477h306v-924q0 -172 68 -250t216 -78q147 0 217 78t70 250v924h303v-957q0 -270 -151.5 -415.5t-436.5 -145.5q-284 0 -438 144t-154 417v957z" />
<glyph unicode="&#x16b;" d="M323 1248v156h574v-156h-574zM1096 1087v-1087h-285v129q-59 -76 -143 -117t-187 -41q-177 0 -267.5 93.5t-90.5 281.5v741h291v-657q0 -114 39 -164.5t129 -50.5q103 0 163 62.5t60 166.5v643h291z" />
<glyph unicode="&#x16c;" horiz-adv-x="1468" d="M425 1936h123q0 -35 12.5 -63.5t37.5 -48.5q46 -35 136 -35t132.5 34.5t51.5 112.5h123q0 -76 -21.5 -132t-63.5 -98q-76 -73 -222 -73q-148 0 -223 74q-39 39 -63 96q-11 27 -17 60t-6 73zM143 1477h306v-924q0 -172 68 -250t216 -78q147 0 217 78t70 250v924h303v-957 q0 -270 -151.5 -415.5t-436.5 -145.5q-284 0 -438 144t-154 417v957z" />
<glyph unicode="&#x16d;" d="M301 1551h123q0 -35 12.5 -63.5t37.5 -48.5q46 -35 136 -35t132.5 34.5t51.5 112.5h123q0 -76 -21.5 -132t-63.5 -98q-76 -73 -222 -73q-148 0 -223 74q-39 39 -63 96q-11 27 -17 60t-6 73zM1096 1087v-1087h-285v129q-59 -76 -143 -117t-187 -41q-177 0 -267.5 93.5 t-90.5 281.5v741h291v-657q0 -114 39 -164.5t129 -50.5q103 0 163 62.5t60 166.5v643h291z" />
<glyph unicode="&#x16e;" horiz-adv-x="1468" d="M610 1899q0 -53 34.5 -88t86.5 -35q49 0 87 36t38 87q0 48 -37 85.5t-88 37.5q-50 0 -85.5 -36.5t-35.5 -86.5zM467 1899q0 111 76.5 188.5t187.5 77.5q109 0 188.5 -77.5t79.5 -188.5t-77.5 -188.5t-190.5 -77.5q-111 0 -187.5 77.5t-76.5 188.5zM143 1477h306v-924 q0 -172 68 -250t216 -78q147 0 217 78t70 250v924h303v-957q0 -270 -151.5 -415.5t-436.5 -145.5q-284 0 -438 144t-154 417v957z" />
<glyph unicode="&#x16f;" d="M487 1514q0 -53 34.5 -88t86.5 -35q49 0 87 36t38 87q0 48 -37 85.5t-88 37.5q-50 0 -85.5 -36.5t-35.5 -86.5zM344 1514q0 111 76.5 188.5t187.5 77.5q109 0 188.5 -77.5t79.5 -188.5t-77.5 -188.5t-190.5 -77.5q-111 0 -187.5 77.5t-76.5 188.5zM1096 1087v-1087h-285 v129q-59 -76 -143 -117t-187 -41q-177 0 -267.5 93.5t-90.5 281.5v741h291v-657q0 -114 39 -164.5t129 -50.5q103 0 163 62.5t60 166.5v643h291z" />
<glyph unicode="&#x172;" horiz-adv-x="1468" d="M783 -26q-58 -46 -95 -102q-15 -26 -24 -51q-4 -13 -6 -24t-2 -28q0 -40 20 -60t62 -20h102v-174h-106q-117 0 -177.5 45.5t-60.5 139.5q0 68 45 136q22 31 58 65.5t87 72.5h97zM143 1477h306v-924q0 -172 68 -250t216 -78q147 0 217 78t70 250v924h303v-957 q0 -270 -151.5 -415.5t-436.5 -145.5q-284 0 -438 144t-154 417v957z" />
<glyph unicode="&#x173;" d="M578 -14q-58 -46 -95 -102q-15 -26 -24 -51q-4 -13 -6 -24t-2 -28q0 -40 20 -60t62 -20h102v-174h-106q-117 0 -177.5 45.5t-60.5 139.5q0 68 45 136q22 31 58 65.5t87 72.5h97zM1096 1087v-1087h-285v129q-59 -76 -143 -117t-187 -41q-177 0 -267.5 93.5t-90.5 281.5 v741h291v-657q0 -114 39 -164.5t129 -50.5q103 0 163 62.5t60 166.5v643h291z" />
<glyph unicode="&#x174;" horiz-adv-x="1913" d="M640 1633l196 370h238l196 -370h-141l-174 217l-176 -217h-139zM438 0l-422 1473h314l252 -1039l213 1039h323l213 -1039l252 1039h311l-421 -1473h-289l-228 1128l-229 -1128h-289z" />
<glyph unicode="&#x175;" horiz-adv-x="1567" d="M468 1248l196 370h238l196 -370h-141l-174 217l-176 -217h-139zM322 0l-308 1087h295l178 -753l150 753h297l158 -753l178 753h282l-305 -1087h-291l-174 778l-168 -778h-292z" />
<glyph unicode="&#x176;" horiz-adv-x="1274" d="M319 1633l196 370h238l196 -370h-141l-174 217l-176 -217h-139zM811 0h-303v549l-535 924h371l315 -635l291 635h346l-485 -924v-549z" />
<glyph unicode="&#x177;" horiz-adv-x="1100" d="M236 1248l196 370h238l196 -370h-141l-174 217l-176 -217h-139zM170 -436v235l29 -3l39 -1q88 0 130 40.5t42 121.5l-2 15l-4 15l-392 1100h320l229 -784l223 784h306l-447 -1282q-49 -143 -126 -196q-38 -27 -92.5 -40t-131.5 -13h-21h-18l-19 2z" />
<glyph unicode="&#x178;" horiz-adv-x="1274" d="M811 0h-303v549l-535 924h371l315 -635l291 635h346l-485 -924v-549zM698 1661v246h226v-246h-226zM350 1661v246h226v-246h-226z" />
<glyph unicode="&#x179;" horiz-adv-x="1231" d="M1013 2003l-313 -370h-142l197 370h258zM37 0v256l801 950h-785v267h1153v-256l-803 -951h785v-266h-1151z" />
<glyph unicode="&#x17a;" horiz-adv-x="1036" d="M909 1618l-313 -370h-142l197 370h258zM35 0v223l596 633h-561v231h909v-237l-588 -608h608v-242h-964z" />
<glyph unicode="&#x17b;" horiz-adv-x="1231" d="M511 1633v258h236v-258h-236zM37 0v256l801 950h-785v267h1153v-256l-803 -951h785v-266h-1151z" />
<glyph unicode="&#x17c;" horiz-adv-x="1036" d="M407 1248v258h236v-258h-236zM35 0v223l596 633h-561v231h909v-237l-588 -608h608v-242h-964z" />
<glyph unicode="&#x17d;" horiz-adv-x="1231" d="M37 0v256l801 950h-785v267h1153v-256l-803 -951h785v-266h-1151zM301 1972h139l176 -219l174 219h141l-196 -370h-238z" />
<glyph unicode="&#x17e;" horiz-adv-x="1036" d="M35 0v223l596 633h-561v231h909v-237l-588 -608h608v-242h-964zM203 1587h139l176 -219l174 219h141l-196 -370h-238z" />
<glyph unicode="&#x17f;" horiz-adv-x="1118" d="M66 354h290q0 -79 59 -121.5t169 -42.5q84 0 131 28.5t47 80.5q0 72 -174 111l-48 10l-65 16q-212 54 -294.5 128t-82.5 200q0 165 120.5 263.5t326.5 98.5q218 0 342 -97q65 -50 99 -118t34 -155h-283q0 66 -51.5 105.5t-138.5 39.5q-83 0 -123.5 -25t-40.5 -75 q0 -63 217 -115l79 -18q214 -51 295 -123t81 -203q0 -185 -130.5 -282t-379.5 -97q-225 0 -352 101t-127 278v12z" />
<glyph unicode="&#x189;" horiz-adv-x="1591" d="M1212 174q-81 -111 -187 -163q-53 -26 -114.5 -39t-130.5 -13q-309 0 -500.5 214.5t-191.5 563.5q0 177 47 316t144 246q191 212 509 212q276 0 450 -132t210 -365h-309q-27 114 -114.5 174.5t-225.5 60.5q-185 0 -290.5 -135.5t-105.5 -374.5q0 -240 110 -376t302 -136 q144 0 239.5 83.5t121.5 234.5h-334v252h610v-797h-203zM488 1937h123q0 -35 12.5 -63.5t37.5 -48.5q46 -35 136 -35t132.5 34.5t51.5 112.5h123q0 -76 -21.5 -132t-63.5 -98q-76 -73 -222 -73q-148 0 -223 74q-39 39 -63 96q-11 27 -17 60t-6 73z" />
<glyph unicode="&#x192;" horiz-adv-x="1161" d="M-10 -389l61 229q27 -12 58 -22l24 -6l23 -2q60 0 89 38q30 36 48 146l127 790h-242v197h277l22 125q39 219 126 312t249 93h26q12 0 25 -2q13 0 25 -3t26 -6l54 -12q20 -5 28 -7.5t29 -12.5l-57 -219q-25 13 -58 22l-27 5l-24 2q-62 0 -93.5 -39t-49.5 -143l-19 -115 h256v-197h-280l-97 -602q-5 -36 -11 -74.5t-18 -103.5t-27 -117q-27 -102 -58 -155q-52 -84 -125 -126t-172 -42q-50 0 -106.5 11.5t-108.5 35.5z" />
<glyph unicode="&#x1a0;" horiz-adv-x="1616" d="M868 864v117q84 24 124 74q20 24 30 57t10 73v25h-164v301h303v-289q0 -151 -75.5 -240.5t-227.5 -117.5zM397 735q0 -243 108 -377.5t302 -134.5t304 135.5t110 376.5q0 243 -108.5 377.5t-305.5 134.5q-192 0 -301 -134t-109 -378zM88 735q0 357 194.5 566.5 t524.5 209.5t525 -210q98 -105 147 -247t49 -319q0 -354 -195.5 -565t-525.5 -211t-524.5 210.5t-194.5 565.5z" />
<glyph unicode="&#x1a1;" horiz-adv-x="1245" d="M684 479v117q84 24 124 74q20 24 30 57t10 73v25h-164v301h303v-289q0 -151 -75.5 -240.5t-227.5 -117.5zM367 545q0 -160 66 -250q34 -44 81.5 -66t108.5 -22q120 0 187 88t67 250q0 159 -66.5 247.5t-187.5 88.5q-123 0 -189.5 -87.5t-66.5 -248.5zM72 545 q0 269 147 425t404 156q254 0 402.5 -156t148.5 -425q0 -272 -147.5 -427t-403.5 -155q-255 0 -403 155t-148 427z" />
<glyph unicode="&#x1af;" horiz-adv-x="1468" d="M1384 864v117q84 24 124 74q20 24 30 57t10 73v25h-164v301h303v-289q0 -151 -75.5 -240.5t-227.5 -117.5zM143 1477h306v-924q0 -172 68 -250t216 -78q147 0 217 78t70 250v924h303v-957q0 -270 -151.5 -415.5t-436.5 -145.5q-284 0 -438 144t-154 417v957z" />
<glyph unicode="&#x1b0;" d="M1157 479v117q84 24 124 74q20 24 30 57t10 73v25h-164v301h303v-289q0 -151 -75.5 -240.5t-227.5 -117.5zM1096 1087v-1087h-285v129q-59 -76 -143 -117t-187 -41q-177 0 -267.5 93.5t-90.5 281.5v741h291v-657q0 -114 39 -164.5t129 -50.5q103 0 163 62.5t60 166.5v643 h291z" />
<glyph unicode="&#x1c0;" horiz-adv-x="1024" d="M410 1565h206v-2048h-206v2048z" />
<glyph unicode="&#x1c1;" horiz-adv-x="2048" d="M1434 1565h206v-2048h-206v2048zM410 1565h206v-2048h-206v2048z" />
<glyph unicode="&#x1c4;" horiz-adv-x="2720" d="M1526 0v256l801 950h-785v267h1153v-256l-803 -951h785v-266h-1151zM1790 1972h139l176 -219l174 219h141l-196 -370h-238zM449 266h243q209 0 304.5 111.5t95.5 357.5q0 247 -87.5 363t-275.5 116h-280v-948zM152 0v1473h577q337 0 504.5 -184t167.5 -554 q0 -202 -60.5 -355.5t-179.5 -248.5q-85 -67 -199.5 -99t-314.5 -32h-495z" />
<glyph unicode="&#x1c5;" horiz-adv-x="2525" d="M1524 0v223l596 633h-561v231h909v-237l-588 -608h608v-242h-964zM1692 1587h139l176 -219l174 219h141l-196 -370h-238zM449 266h243q209 0 304.5 111.5t95.5 357.5q0 247 -87.5 363t-275.5 116h-280v-948zM152 0v1473h577q337 0 504.5 -184t167.5 -554 q0 -202 -60.5 -355.5t-179.5 -248.5q-85 -67 -199.5 -99t-314.5 -32h-495z" />
<glyph unicode="&#x1c6;" horiz-adv-x="2296" d="M1295 0v223l596 633h-561v231h909v-237l-588 -608h608v-242h-964zM1463 1587h139l176 -219l174 219h141l-196 -370h-238zM1126 1473v-1473h-276v147q-61 -93 -140.5 -138.5t-185.5 -45.5q-199 0 -324.5 159.5t-125.5 416.5q0 258 124.5 421.5t321.5 163.5q56 0 99.5 -9.5 t87.5 -34.5q80 -42 137 -128v521h282zM365 551q0 -166 62 -252t179 -86q116 0 177 87t61 251q0 154 -63.5 237.5t-180.5 83.5q-108 0 -171.5 -84.5t-63.5 -236.5z" />
<glyph unicode="&#x1c7;" horiz-adv-x="2321" d="M1237 549h293v-178q0 -75 46 -116.5t132 -41.5q91 0 129.5 49t38.5 184v1027h303v-1041q0 -142 -15.5 -205.5t-55.5 -115.5q-55 -72 -158 -112q-52 -20 -110 -30t-128 -10q-126 0 -222.5 33.5t-158.5 101.5q-50 53 -72 120.5t-22 219.5v115zM152 0v1473h303v-1201h719 v-272h-1022z" />
<glyph unicode="&#x1c8;" horiz-adv-x="1743" d="M1321 1208v262h291v-262h-291zM1194 -444v243h57q34 0 52 17.5t18 56.5v1214h291v-1261q0 -144 -81.5 -207t-281.5 -63h-55zM152 0v1473h303v-1201h719v-272h-1022z" />
<glyph unicode="&#x1c9;" horiz-adv-x="1118" d="M696 1208v262h291v-262h-291zM569 -444v243h57q34 0 52 17.5t18 56.5v1214h291v-1261q0 -144 -81.5 -207t-281.5 -63h-55zM137 0v1473h291v-1473h-291z" />
<glyph unicode="&#x1ca;" horiz-adv-x="2651" d="M1567 549h293v-178q0 -75 46 -116.5t132 -41.5q91 0 129.5 49t38.5 184v1027h303v-1041q0 -142 -15.5 -205.5t-55.5 -115.5q-55 -72 -158 -112q-52 -20 -110 -30t-128 -10q-126 0 -222.5 33.5t-158.5 101.5q-50 53 -72 120.5t-22 219.5v115zM152 0v1473h317l598 -1012 v1012h299v-1473h-313l-602 1012v-1012h-299z" />
<glyph unicode="&#x1cb;" horiz-adv-x="2073" d="M1651 1208v262h291v-262h-291zM1524 -444v243h57q34 0 52 17.5t18 56.5v1214h291v-1261q0 -144 -81.5 -207t-281.5 -63h-55zM152 0v1473h317l598 -1012v1012h299v-1473h-313l-602 1012v-1012h-299z" />
<glyph unicode="&#x1cc;" horiz-adv-x="1778" d="M1356 1208v262h291v-262h-291zM1229 -444v243h57q34 0 52 17.5t18 56.5v1214h291v-1261q0 -144 -81.5 -207t-281.5 -63h-55zM127 0v1087h285v-129q58 76 144 118q42 20 87 30q21 4 47 7t51 3q178 0 268.5 -93.5t90.5 -281.5v-741h-291v657q0 117 -39.5 167t-128.5 50 q-102 0 -162.5 -60.5t-60.5 -168.5v-645h-291z" />
<glyph unicode="&#x1cd;" horiz-adv-x="1405" d="M384 2003h139l176 -219l174 219h141l-196 -370h-238zM700 1178l-204 -627h409zM524 1473h350l531 -1473h-318l-100 303h-571l-97 -303h-319z" />
<glyph unicode="&#x1ce;" horiz-adv-x="1151" d="M238 1618h139l176 -219l174 219h141l-196 -370h-238zM750 135q-54 -82 -144 -128t-207 -46q-156 0 -242.5 90.5t-86.5 255.5q0 153 85 233.5t283 112.5l118 16q185 24 185 107q0 66 -41 94.5t-137 28.5q-88 0 -135 -35t-47 -100v-16h-272v20q0 164 117 261t327 97 q228 0 349.5 -78.5t121.5 -228.5v-618q0 -70 13 -101t48 -51v-49h-303q-12 22 -23 62l-6 30zM745 535q-63 -30 -164 -53l-95 -21q-77 -21 -107.5 -54.5t-30.5 -91.5q0 -60 39.5 -95.5t104.5 -35.5q115 0 184 66t69 182v103z" />
<glyph unicode="&#x1cf;" horiz-adv-x="629" d="M-1 2003h139l176 -219l174 219h141l-196 -370h-238zM162 0v1473h303v-1473h-303z" />
<glyph unicode="&#x1d0;" horiz-adv-x="557" d="M-37 1618h139l176 -219l174 219h141l-196 -370h-238zM133 0v1087h291v-1087h-291z" />
<glyph unicode="&#x1d1;" horiz-adv-x="1616" d="M492 2003h139l176 -219l174 219h141l-196 -370h-238zM397 735q0 -243 108 -377.5t302 -134.5t304 135.5t110 376.5q0 243 -108.5 377.5t-305.5 134.5q-192 0 -301 -134t-109 -378zM88 735q0 357 194.5 566.5t524.5 209.5t525 -210q98 -105 147 -247t49 -319 q0 -354 -195.5 -565t-525.5 -211t-524.5 210.5t-194.5 565.5z" />
<glyph unicode="&#x1d2;" horiz-adv-x="1245" d="M308 1618h139l176 -219l174 219h141l-196 -370h-238zM367 545q0 -160 66 -250q34 -44 81.5 -66t108.5 -22q120 0 187 88t67 250q0 159 -66.5 247.5t-187.5 88.5q-123 0 -189.5 -87.5t-66.5 -248.5zM72 545q0 269 147 425t404 156q254 0 402.5 -156t148.5 -425 q0 -272 -147.5 -427t-403.5 -155q-255 0 -403 155t-148 427z" />
<glyph unicode="&#x1d3;" horiz-adv-x="1468" d="M418 2003h139l176 -219l174 219h141l-196 -370h-238zM143 1477h306v-924q0 -172 68 -250t216 -78q147 0 217 78t70 250v924h303v-957q0 -270 -151.5 -415.5t-436.5 -145.5q-284 0 -438 144t-154 417v957z" />
<glyph unicode="&#x1d4;" d="M295 1618h139l176 -219l174 219h141l-196 -370h-238zM1096 1087v-1087h-285v129q-59 -76 -143 -117t-187 -41q-177 0 -267.5 93.5t-90.5 281.5v741h291v-657q0 -114 39 -164.5t129 -50.5q103 0 163 62.5t60 166.5v643h291z" />
<glyph unicode="&#x1d5;" horiz-adv-x="1468" d="M448 2029v156h574v-156h-574zM143 1477h306v-924q0 -172 68 -250t216 -78q147 0 217 78t70 250v924h303v-957q0 -270 -151.5 -415.5t-436.5 -145.5q-284 0 -438 144t-154 417v957zM796 1661v246h226v-246h-226zM448 1661v246h226v-246h-226z" />
<glyph unicode="&#x1d6;" d="M325 1644v156h574v-156h-574zM1096 1087v-1087h-285v129q-59 -76 -143 -117t-187 -41q-177 0 -267.5 93.5t-90.5 281.5v741h291v-657q0 -114 39 -164.5t129 -50.5q103 0 163 62.5t60 166.5v643h291zM673 1276v246h226v-246h-226zM325 1276v246h226v-246h-226z" />
<glyph unicode="&#x1d7;" horiz-adv-x="1468" d="M1119 2399l-313 -370h-142l197 370h258zM143 1477h306v-924q0 -172 68 -250t216 -78q147 0 217 78t70 250v924h303v-957q0 -270 -151.5 -415.5t-436.5 -145.5q-284 0 -438 144t-154 417v957zM796 1661v246h226v-246h-226zM448 1661v246h226v-246h-226z" />
<glyph unicode="&#x1d8;" d="M996 2014l-313 -370h-142l197 370h258zM1096 1087v-1087h-285v129q-59 -76 -143 -117t-187 -41q-177 0 -267.5 93.5t-90.5 281.5v741h291v-657q0 -114 39 -164.5t129 -50.5q103 0 163 62.5t60 166.5v643h291zM673 1276v246h226v-246h-226zM325 1276v246h226v-246h-226z " />
<glyph unicode="&#x1d9;" horiz-adv-x="1468" d="M420 2399h139l176 -219l174 219h141l-196 -370h-238zM143 1477h306v-924q0 -172 68 -250t216 -78q147 0 217 78t70 250v924h303v-957q0 -270 -151.5 -415.5t-436.5 -145.5q-284 0 -438 144t-154 417v957zM796 1661v246h226v-246h-226zM448 1661v246h226v-246h-226z" />
<glyph unicode="&#x1da;" d="M297 2014h139l176 -219l174 219h141l-196 -370h-238zM1096 1087v-1087h-285v129q-59 -76 -143 -117t-187 -41q-177 0 -267.5 93.5t-90.5 281.5v741h291v-657q0 -114 39 -164.5t129 -50.5q103 0 163 62.5t60 166.5v643h291zM673 1276v246h226v-246h-226zM325 1276v246h226 v-246h-226z" />
<glyph unicode="&#x1db;" horiz-adv-x="1468" d="M351 2399h258l197 -370h-142zM143 1477h306v-924q0 -172 68 -250t216 -78q147 0 217 78t70 250v924h303v-957q0 -270 -151.5 -415.5t-436.5 -145.5q-284 0 -438 144t-154 417v957zM796 1661v246h226v-246h-226zM448 1661v246h226v-246h-226z" />
<glyph unicode="&#x1dc;" d="M228 2014h258l197 -370h-142zM1096 1087v-1087h-285v129q-59 -76 -143 -117t-187 -41q-177 0 -267.5 93.5t-90.5 281.5v741h291v-657q0 -114 39 -164.5t129 -50.5q103 0 163 62.5t60 166.5v643h291zM673 1276v246h226v-246h-226zM325 1276v246h226v-246h-226z" />
<glyph unicode="&#x1de;" horiz-adv-x="1405" d="M415 2029v156h574v-156h-574zM700 1178l-204 -627h409zM524 1473h350l531 -1473h-318l-100 303h-571l-97 -303h-319zM763 1661v246h226v-246h-226zM415 1661v246h226v-246h-226z" />
<glyph unicode="&#x1df;" horiz-adv-x="1151" d="M274 1644v156h574v-156h-574zM750 135q-54 -82 -144 -128t-207 -46q-156 0 -242.5 90.5t-86.5 255.5q0 153 85 233.5t283 112.5l118 16q185 24 185 107q0 66 -41 94.5t-137 28.5q-88 0 -135 -35t-47 -100v-16h-272v20q0 164 117 261t327 97q228 0 349.5 -78.5 t121.5 -228.5v-618q0 -70 13 -101t48 -51v-49h-303q-12 22 -23 62l-6 30zM745 535q-63 -30 -164 -53l-95 -21q-77 -21 -107.5 -54.5t-30.5 -91.5q0 -60 39.5 -95.5t104.5 -35.5q115 0 184 66t69 182v103zM622 1276v246h226v-246h-226zM274 1276v246h226v-246h-226z" />
<glyph unicode="&#x1e2;" horiz-adv-x="2052" d="M963 1633v156h574v-156h-574zM504 541h414v682h-166zM-14 0l581 1473h1366v-256h-723v-314h658v-252h-658v-379h760v-272h-1052v303h-500l-111 -303h-321z" />
<glyph unicode="&#x1e3;" horiz-adv-x="1810" d="M613 1248v156h574v-156h-574zM1002 659h440v7q0 104 -59.5 166.5t-163.5 62.5q-96 0 -156 -64q-29 -32 -46 -75q-15 -42 -15 -97zM739 530q-72 -32 -178 -54l-42 -8q-23 -4 -45 -12q-33 -7 -45 -15q-35 -18 -58 -51q-19 -36 -19 -79q0 -62 40.5 -95.5t115.5 -33.5 q96 0 163.5 62t67.5 147v139zM850 154q-67 -96 -176.5 -143.5t-263.5 -47.5q-165 0 -252.5 88.5t-87.5 255.5q0 148 81.5 231.5t251.5 108.5l118 16q212 26 212 111q0 69 -38 95t-142 26q-81 0 -125.5 -35.5t-44.5 -103.5v-8h-274v22q0 165 120.5 260.5t335.5 95.5 q110 0 201 -30t147 -86q60 60 140 88q41 14 84 21q22 3 46 5t52 2q239 0 373.5 -153.5t134.5 -429.5l-1 -47v-12q0 -7 -2 -17h-738q0 -129 61.5 -198.5t171.5 -69.5q67 0 119 33t86 100h291q-39 -172 -176.5 -270.5t-340.5 -98.5q-121 0 -215 48t-149 143z" />
<glyph unicode="&#x1e6;" horiz-adv-x="1591" d="M473 2003h139l176 -219l174 219h141l-196 -370h-238zM1212 174q-81 -111 -187 -163q-53 -26 -114.5 -39t-130.5 -13q-309 0 -500.5 214.5t-191.5 563.5q0 177 47 316t144 246q191 212 509 212q276 0 450 -132t210 -365h-309q-27 114 -114.5 174.5t-225.5 60.5 q-185 0 -290.5 -135.5t-105.5 -374.5q0 -240 110 -376t302 -136q144 0 239.5 83.5t121.5 234.5h-334v252h610v-797h-203z" />
<glyph unicode="&#x1e7;" horiz-adv-x="1249" d="M215 1618h139l176 -219l174 219h141l-196 -370h-238zM365 561q0 -153 61.5 -235t175.5 -82t175 82t61 239q0 146 -62.5 229t-177.5 83q-110 0 -172 -84q-29 -40 -45 -99.5t-16 -132.5zM102 -105l318 1q12 -53 57 -81t117 -28q135 0 189 58q27 29 41 81.5t14 130.5v97 q-44 -77 -119 -115.5t-184 -38.5q-208 0 -336.5 150.5t-128.5 400.5q0 264 124.5 419.5t335.5 155.5q107 0 186 -42t128 -128v131h276v-1015q0 -176 -31 -263.5t-110 -148.5q-63 -48 -167 -76q-53 -14 -108.5 -21t-123.5 -7q-218 0 -343 89q-64 44 -99.5 107t-35.5 143z" />
<glyph unicode="&#x1e8;" horiz-adv-x="1440" d="M465 2003h139l176 -219l174 219h141l-196 -370h-238zM152 0v1473h303v-605l575 605h379l-588 -596l641 -877h-370l-480 674l-157 -156v-518h-303z" />
<glyph unicode="&#x1e9;" horiz-adv-x="1135" d="M-41 1965h139l176 -219l174 219h141l-196 -370h-238zM133 0v1473h283v-773l346 387h350l-379 -403l402 -684h-349l-260 463l-110 -119v-344h-283z" />
<glyph unicode="&#x1ea;" horiz-adv-x="1616" d="M855 -26q-58 -46 -95 -102q-15 -26 -24 -51q-4 -13 -6 -24t-2 -28q0 -40 20 -60t62 -20h102v-174h-106q-117 0 -177.5 45.5t-60.5 139.5q0 68 45 136q22 31 58 65.5t87 72.5h97zM397 735q0 -243 108 -377.5t302 -134.5t304 135.5t110 376.5q0 243 -108.5 377.5 t-305.5 134.5q-192 0 -301 -134t-109 -378zM88 735q0 357 194.5 566.5t524.5 209.5t525 -210q98 -105 147 -247t49 -319q0 -354 -195.5 -565t-525.5 -211t-524.5 210.5t-194.5 565.5z" />
<glyph unicode="&#x1eb;" horiz-adv-x="1245" d="M671 -22q-58 -46 -95 -102q-15 -26 -24 -51q-4 -13 -6 -24t-2 -28q0 -40 20 -60t62 -20h102v-174h-106q-117 0 -177.5 45.5t-60.5 139.5q0 68 45 136q22 31 58 65.5t87 72.5h97zM367 545q0 -160 66 -250q34 -44 81.5 -66t108.5 -22q120 0 187 88t67 250 q0 159 -66.5 247.5t-187.5 88.5q-123 0 -189.5 -87.5t-66.5 -248.5zM72 545q0 269 147 425t404 156q254 0 402.5 -156t148.5 -425q0 -272 -147.5 -427t-403.5 -155q-255 0 -403 155t-148 427z" />
<glyph unicode="&#x1ec;" horiz-adv-x="1616" d="M520 1633v156h574v-156h-574zM855 -26q-58 -46 -95 -102q-15 -26 -24 -51q-4 -13 -6 -24t-2 -28q0 -40 20 -60t62 -20h102v-174h-106q-117 0 -177.5 45.5t-60.5 139.5q0 68 45 136q22 31 58 65.5t87 72.5h97zM397 735q0 -243 108 -377.5t302 -134.5t304 135.5t110 376.5 q0 243 -108.5 377.5t-305.5 134.5q-192 0 -301 -134t-109 -378zM88 735q0 357 194.5 566.5t524.5 209.5t525 -210q98 -105 147 -247t49 -319q0 -354 -195.5 -565t-525.5 -211t-524.5 210.5t-194.5 565.5z" />
<glyph unicode="&#x1ed;" horiz-adv-x="1245" d="M336 1248v156h574v-156h-574zM671 -22q-58 -46 -95 -102q-15 -26 -24 -51q-4 -13 -6 -24t-2 -28q0 -40 20 -60t62 -20h102v-174h-106q-117 0 -177.5 45.5t-60.5 139.5q0 68 45 136q22 31 58 65.5t87 72.5h97zM367 545q0 -160 66 -250q34 -44 81.5 -66t108.5 -22 q120 0 187 88t67 250q0 159 -66.5 247.5t-187.5 88.5q-123 0 -189.5 -87.5t-66.5 -248.5zM72 545q0 269 147 425t404 156q254 0 402.5 -156t148.5 -425q0 -272 -147.5 -427t-403.5 -155q-255 0 -403 155t-148 427z" />
<glyph unicode="&#x1f0;" horiz-adv-x="555" d="M-37 1962h139l176 -219l174 219h141l-196 -370h-238zM133 1208v262h291v-262h-291zM6 -444v243h57q34 0 52 17.5t18 56.5v1214h291v-1261q0 -144 -81.5 -207t-281.5 -63h-55z" />
<glyph unicode="&#x1f1;" horiz-adv-x="2720" d="M1526 0v256l801 950h-785v267h1153v-256l-803 -951h785v-266h-1151zM449 266h243q209 0 304.5 111.5t95.5 357.5q0 247 -87.5 363t-275.5 116h-280v-948zM152 0v1473h577q337 0 504.5 -184t167.5 -554q0 -202 -60.5 -355.5t-179.5 -248.5q-85 -67 -199.5 -99t-314.5 -32 h-495z" />
<glyph unicode="&#x1f2;" horiz-adv-x="2525" d="M1524 0v223l596 633h-561v231h909v-237l-588 -608h608v-242h-964zM449 266h243q209 0 304.5 111.5t95.5 357.5q0 247 -87.5 363t-275.5 116h-280v-948zM152 0v1473h577q337 0 504.5 -184t167.5 -554q0 -202 -60.5 -355.5t-179.5 -248.5q-85 -67 -199.5 -99t-314.5 -32 h-495z" />
<glyph unicode="&#x1f3;" horiz-adv-x="2296" d="M1295 0v223l596 633h-561v231h909v-237l-588 -608h608v-242h-964zM1126 1473v-1473h-276v147q-61 -93 -140.5 -138.5t-185.5 -45.5q-199 0 -324.5 159.5t-125.5 416.5q0 258 124.5 421.5t321.5 163.5q56 0 99.5 -9.5t87.5 -34.5q80 -42 137 -128v521h282zM365 551 q0 -166 62 -252t179 -86q116 0 177 87t61 251q0 154 -63.5 237.5t-180.5 83.5q-108 0 -171.5 -84.5t-63.5 -236.5z" />
<glyph unicode="&#x1f4;" horiz-adv-x="1591" d="M1172 2003l-313 -370h-142l197 370h258zM1212 174q-81 -111 -187 -163q-53 -26 -114.5 -39t-130.5 -13q-309 0 -500.5 214.5t-191.5 563.5q0 177 47 316t144 246q191 212 509 212q276 0 450 -132t210 -365h-309q-27 114 -114.5 174.5t-225.5 60.5q-185 0 -290.5 -135.5 t-105.5 -374.5q0 -240 110 -376t302 -136q144 0 239.5 83.5t121.5 234.5h-334v252h610v-797h-203z" />
<glyph unicode="&#x1f5;" horiz-adv-x="1249" d="M914 1618l-313 -370h-142l197 370h258zM365 561q0 -153 61.5 -235t175.5 -82t175 82t61 239q0 146 -62.5 229t-177.5 83q-110 0 -172 -84q-29 -40 -45 -99.5t-16 -132.5zM102 -105l318 1q12 -53 57 -81t117 -28q135 0 189 58q27 29 41 81.5t14 130.5v97 q-44 -77 -119 -115.5t-184 -38.5q-208 0 -336.5 150.5t-128.5 400.5q0 264 124.5 419.5t335.5 155.5q107 0 186 -42t128 -128v131h276v-1015q0 -176 -31 -263.5t-110 -148.5q-63 -48 -167 -76q-53 -14 -108.5 -21t-123.5 -7q-218 0 -343 89q-64 44 -99.5 107t-35.5 143z" />
<glyph unicode="&#x1f8;" horiz-adv-x="1518" d="M375 2003h258l197 -370h-142zM152 0v1473h317l598 -1012v1012h299v-1473h-313l-602 1012v-1012h-299z" />
<glyph unicode="&#x1f9;" d="M229 1618h258l197 -370h-142zM127 0v1087h285v-129q58 76 144 118q42 20 87 30q21 4 47 7t51 3q178 0 268.5 -93.5t90.5 -281.5v-741h-291v657q0 117 -39.5 167t-128.5 50q-102 0 -162.5 -60.5t-60.5 -168.5v-645h-291z" />
<glyph unicode="&#x1fa;" horiz-adv-x="1405" d="M1084 2464l-313 -370h-142l197 370h258zM700 1835q-46 0 -81 -36.5t-35 -84.5q0 -45 33 -83q34 -34 83 -34q50 0 85.5 34.5t35.5 82.5q0 46 -35.5 83.5t-85.5 37.5zM700 1972q108 0 183 -74.5t75 -181.5q0 -105 -75.5 -180.5t-182.5 -75.5t-180.5 75t-73.5 181 q0 108 73.5 182t180.5 74zM508 1413h385l512 -1413h-318l-100 303h-571l-97 -303h-319zM700 1178l-204 -627h409z" />
<glyph unicode="&#x1fb;" horiz-adv-x="1151" d="M951 2178l-313 -370h-142l197 370h258zM745 535q-63 -30 -164 -53l-95 -21q-77 -21 -107.5 -54.5t-30.5 -91.5q0 -60 39.5 -95.5t104.5 -35.5q115 0 184 66t69 182v103zM449 1427q0 -48 35.5 -82t82.5 -34q49 0 84 33t35 83t-35 85.5t-84 35.5q-47 0 -82.5 -36.5 t-35.5 -84.5zM311 1430q0 107 74.5 181.5t181.5 74.5q106 0 181 -74.5t75 -181.5q0 -108 -74 -182t-182 -74q-107 0 -181.5 74t-74.5 182zM750 135q-54 -82 -144 -128t-207 -46q-156 0 -242.5 90.5t-86.5 255.5q0 153 85 233.5t283 112.5l118 16q185 24 185 107 q0 66 -41 94.5t-137 28.5q-88 0 -135 -35t-47 -100v-16h-272v20q0 164 117 261t327 97q228 0 349.5 -78.5t121.5 -228.5v-618q0 -70 13 -101t48 -51v-49h-303q-12 22 -23 62l-6 30z" />
<glyph unicode="&#x1fc;" horiz-adv-x="2052" d="M1634 2003l-313 -370h-142l197 370h258zM504 541h414v682h-166zM-14 0l581 1473h1366v-256h-723v-314h658v-252h-658v-379h760v-272h-1052v303h-500l-111 -303h-321z" />
<glyph unicode="&#x1fd;" horiz-adv-x="1810" d="M1284 1618l-313 -370h-142l197 370h258zM1002 659h440v7q0 104 -59.5 166.5t-163.5 62.5q-96 0 -156 -64q-29 -32 -46 -75q-15 -42 -15 -97zM739 530q-72 -32 -178 -54l-42 -8q-23 -4 -45 -12q-33 -7 -45 -15q-35 -18 -58 -51q-19 -36 -19 -79q0 -62 40.5 -95.5 t115.5 -33.5q96 0 163.5 62t67.5 147v139zM850 154q-67 -96 -176.5 -143.5t-263.5 -47.5q-165 0 -252.5 88.5t-87.5 255.5q0 148 81.5 231.5t251.5 108.5l118 16q212 26 212 111q0 69 -38 95t-142 26q-81 0 -125.5 -35.5t-44.5 -103.5v-8h-274v22q0 165 120.5 260.5 t335.5 95.5q110 0 201 -30t147 -86q60 60 140 88q41 14 84 21q22 3 46 5t52 2q239 0 373.5 -153.5t134.5 -429.5l-1 -47v-12q0 -7 -2 -17h-738q0 -129 61.5 -198.5t171.5 -69.5q67 0 119 33t86 100h291q-39 -172 -176.5 -270.5t-340.5 -98.5q-121 0 -215 48t-149 143z" />
<glyph unicode="&#x1fe;" horiz-adv-x="1616" d="M1175 2022l-313 -370h-142l197 370h258zM512 348q57 -63 132 -94t163 -31q194 0 304 135.5t110 376.5q0 96 -18 178.5t-52 141.5zM449 449l632 696q-50 49 -120.5 75.5t-153.5 26.5q-192 0 -301 -134t-109 -378q0 -88 12 -160t40 -126zM55 23l183 204q-73 98 -111.5 229 t-38.5 279q0 357 194.5 566.5t524.5 209.5q139 0 251 -35.5t210 -111.5l147 166l98 -88l-155 -168q84 -105 127 -239q9 -28 17.5 -65t14 -73.5t8.5 -77.5t3 -84q0 -353 -195.5 -564.5t-525.5 -211.5q-146 0 -267 42t-216 128l-172 -195z" />
<glyph unicode="&#x1ff;" horiz-adv-x="1245" d="M1005 1643l-313 -370h-142l197 370h258zM434 281q36 -42 81 -63q48 -19 103 -19q130 0 198.5 89.5t68.5 260.5q0 51 -7 93q-6 49 -20 81zM809 811q-36 39 -82 58q-22 10 -42.5 14.5t-32.5 5t-19 0.5q-135 0 -205 -89.5t-70 -262.5q0 -47 6.5 -84t11.5 -55q2 -6 11 -31z M39 10l145 152q-55 74 -84.5 172t-29.5 211q0 270 150.5 426.5t408.5 156.5q102 0 193 -30.5t167 -91.5l135 145l78 -74l-141 -149q55 -71 85 -169q14 -49 21 -101q3 -27 5 -55t2 -62q0 -265 -149.5 -422.5t-403.5 -157.5q-116 0 -204.5 29t-160.5 92l-139 -148z" />
<glyph unicode="&#x202;" horiz-adv-x="1405" d="M391 1633h123q0 35 12.5 63.5t37.5 48.5q46 35 136 35t132.5 -34.5t51.5 -112.5h123q0 76 -21.5 132t-63.5 98q-76 73 -222 73q-148 0 -223 -74q-39 -39 -63 -96q-11 -27 -17 -60t-6 -73zM700 1178l-204 -627h409zM524 1473h350l531 -1473h-318l-100 303h-571l-97 -303 h-319z" />
<glyph unicode="&#x203;" horiz-adv-x="1151" d="M245 1248h123q0 35 12.5 63.5t37.5 48.5q46 35 136 35t132.5 -34.5t51.5 -112.5h123q0 76 -21.5 132t-63.5 98q-76 73 -222 73q-148 0 -223 -74q-39 -39 -63 -96q-11 -27 -17 -60t-6 -73zM750 135q-54 -82 -144 -128t-207 -46q-156 0 -242.5 90.5t-86.5 255.5 q0 153 85 233.5t283 112.5l118 16q185 24 185 107q0 66 -41 94.5t-137 28.5q-88 0 -135 -35t-47 -100v-16h-272v20q0 164 117 261t327 97q228 0 349.5 -78.5t121.5 -228.5v-618q0 -70 13 -101t48 -51v-49h-303q-12 22 -23 62l-6 30zM745 535q-63 -30 -164 -53l-95 -21 q-77 -21 -107.5 -54.5t-30.5 -91.5q0 -60 39.5 -95.5t104.5 -35.5q115 0 184 66t69 182v103z" />
<glyph unicode="&#x206;" horiz-adv-x="1337" d="M379 1633h123q0 35 12.5 63.5t37.5 48.5q46 35 136 35t132.5 -34.5t51.5 -112.5h123q0 76 -21.5 132t-63.5 98q-76 73 -222 73q-148 0 -223 -74q-39 -39 -63 -96q-11 -27 -17 -60t-6 -73zM152 0v1473h1069v-256h-770v-314h704v-252h-704v-379h806v-272h-1105z" />
<glyph unicode="&#x207;" horiz-adv-x="1167" d="M272 1248h123q0 35 12.5 63.5t37.5 48.5q46 35 136 35t132.5 -34.5t51.5 -112.5h123q0 76 -21.5 132t-63.5 98q-76 73 -222 73q-148 0 -223 -74q-39 -39 -63 -96q-11 -27 -17 -60t-6 -73zM797 330h290q-43 -170 -177 -268.5t-326 -98.5q-234 0 -373 158.5t-139 429.5 q0 267 136 421t372 154q249 0 385.5 -151.5t136.5 -431.5l-1 -47v-12q0 -7 -2 -17h-726q0 -63 15 -110t47 -83q57 -65 163 -65q78 0 124.5 29.5t74.5 91.5zM373 658h428q0 105 -57 165t-158 60q-95 0 -150 -58q-28 -29 -45.5 -72t-17.5 -95z" />
<glyph unicode="&#x20a;" horiz-adv-x="629" d="M5 1633h123q0 35 12.5 63.5t37.5 48.5q46 35 136 35t132.5 -34.5t51.5 -112.5h123q0 76 -21.5 132t-63.5 98q-76 73 -222 73q-148 0 -223 -74q-39 -39 -63 -96q-11 -27 -17 -60t-6 -73zM162 0v1473h303v-1473h-303z" />
<glyph unicode="&#x20b;" horiz-adv-x="557" d="M-29 1248h123q0 35 12.5 63.5t37.5 48.5q46 35 136 35t132.5 -34.5t51.5 -112.5h123q0 76 -21.5 132t-63.5 98q-76 73 -222 73q-148 0 -223 -74q-39 -39 -63 -96q-11 -27 -17 -60t-6 -73zM133 0v1087h291v-1087h-291z" />
<glyph unicode="&#x20e;" horiz-adv-x="1616" d="M499 1633h123q0 35 12.5 63.5t37.5 48.5q46 35 136 35t132.5 -34.5t51.5 -112.5h123q0 76 -21.5 132t-63.5 98q-76 73 -222 73q-148 0 -223 -74q-39 -39 -63 -96q-11 -27 -17 -60t-6 -73zM397 735q0 -243 108 -377.5t302 -134.5t304 135.5t110 376.5q0 243 -108.5 377.5 t-305.5 134.5q-192 0 -301 -134t-109 -378zM88 735q0 357 194.5 566.5t524.5 209.5t525 -210q98 -105 147 -247t49 -319q0 -354 -195.5 -565t-525.5 -211t-524.5 210.5t-194.5 565.5z" />
<glyph unicode="&#x20f;" horiz-adv-x="1245" d="M315 1248h123q0 35 12.5 63.5t37.5 48.5q46 35 136 35t132.5 -34.5t51.5 -112.5h123q0 76 -21.5 132t-63.5 98q-76 73 -222 73q-148 0 -223 -74q-39 -39 -63 -96q-11 -27 -17 -60t-6 -73zM367 545q0 -160 66 -250q34 -44 81.5 -66t108.5 -22q120 0 187 88t67 250 q0 159 -66.5 247.5t-187.5 88.5q-123 0 -189.5 -87.5t-66.5 -248.5zM72 545q0 269 147 425t404 156q254 0 402.5 -156t148.5 -425q0 -272 -147.5 -427t-403.5 -155q-255 0 -403 155t-148 427z" />
<glyph unicode="&#x212;" horiz-adv-x="1462" d="M201 1633h123q0 35 12.5 63.5t37.5 48.5q46 35 136 35t132.5 -34.5t51.5 -112.5h123q0 76 -21.5 132t-63.5 98q-76 73 -222 73q-148 0 -223 -74q-39 -39 -63 -96q-11 -27 -17 -60t-6 -73zM455 829h356q116 0 170.5 47t54.5 148q0 96 -53 145.5t-158 49.5h-370v-390z M152 0v1473h714q241 0 357 -102.5t116 -315.5q0 -137 -56 -226t-163 -122q96 -33 136 -104q20 -36 33.5 -91t13.5 -127l6 -174v-6q0 -67 14.5 -105.5t42.5 -54.5v-45h-332q-13 27 -25 76l-8 52l-2 57l-4 155q0 35 -3 61.5t-11 51.5q-12 48 -38 72q-45 48 -167 48h-321v-573 h-303z" />
<glyph unicode="&#x213;" horiz-adv-x="786" d="M133 1248h123q0 35 12.5 63.5t37.5 48.5q46 35 136 35t132.5 -34.5t51.5 -112.5h123q0 76 -21.5 132t-63.5 98q-76 73 -222 73q-148 0 -223 -74q-39 -39 -63 -96q-11 -27 -17 -60t-6 -73zM127 0v1087h270v-186q55 109 132 163t182 54l26 -1l16 -1l1 -295h-97 q-117 0 -178 -62t-61 -184v-575h-291z" />
<glyph unicode="&#x216;" horiz-adv-x="1468" d="M425 1633h123q0 35 12.5 63.5t37.5 48.5q46 35 136 35t132.5 -34.5t51.5 -112.5h123q0 76 -21.5 132t-63.5 98q-76 73 -222 73q-148 0 -223 -74q-39 -39 -63 -96q-11 -27 -17 -60t-6 -73zM143 1477h306v-924q0 -172 68 -250t216 -78q147 0 217 78t70 250v924h303v-957 q0 -270 -151.5 -415.5t-436.5 -145.5q-284 0 -438 144t-154 417v957z" />
<glyph unicode="&#x217;" d="M301 1248h123q0 35 12.5 63.5t37.5 48.5q46 35 136 35t132.5 -34.5t51.5 -112.5h123q0 76 -21.5 132t-63.5 98q-76 73 -222 73q-148 0 -223 -74q-39 -39 -63 -96q-11 -27 -17 -60t-6 -73zM1096 1087v-1087h-285v129q-59 -76 -143 -117t-187 -41q-177 0 -267.5 93.5 t-90.5 281.5v741h291v-657q0 -114 39 -164.5t129 -50.5q103 0 163 62.5t60 166.5v643h291z" />
<glyph unicode="&#x218;" horiz-adv-x="1366" d="M539 -810v117q84 24 124 74q20 24 30 57t10 73v25h-164v301h303v-289q0 -151 -75.5 -240.5t-227.5 -117.5zM84 455h299q16 -119 98.5 -178.5t237.5 -59.5q133 0 199.5 47t66.5 139q0 134 -385 222q-7 0 -9 2l-31 7q-209 45 -294 101q-76 48 -118 133.5t-42 200.5 q0 213 147 328.5t421 115.5q259 0 403 -122q74 -62 114 -148q20 -44 30 -91.5t10 -104.5h-291q0 50 -20.5 90.5t-61.5 72.5q-74 56 -211 56q-119 0 -183.5 -46.5t-64.5 -132.5q0 -117 251 -175l106 -25q168 -43 231 -64t115 -51q90 -49 135 -131t45 -199q0 -230 -155 -356.5 t-437 -126.5q-275 0 -436 129q-79 65 -124.5 158t-45.5 209z" />
<glyph unicode="&#x219;" horiz-adv-x="1118" d="M393 -806v117q84 24 124 74q20 24 30 57t10 73v25h-164v301h303v-289q0 -151 -75.5 -240.5t-227.5 -117.5zM66 354h290q0 -79 59 -121.5t169 -42.5q84 0 131 28.5t47 80.5q0 72 -174 111l-48 10l-65 16q-212 54 -294.5 128t-82.5 200q0 165 120.5 263.5t326.5 98.5 q218 0 342 -97q65 -50 99 -118t34 -155h-283q0 66 -51.5 105.5t-138.5 39.5q-83 0 -123.5 -25t-40.5 -75q0 -63 217 -115l79 -18q214 -51 295 -123t81 -203q0 -185 -130.5 -282t-379.5 -97q-225 0 -352 101t-127 278v12z" />
<glyph unicode="&#x21a;" horiz-adv-x="1217" d="M457 -769v117q84 24 124 74q20 24 30 57t10 73v25h-164v301h303v-289q0 -151 -75.5 -240.5t-227.5 -117.5zM457 0v1210h-437v263h1174v-263h-434v-1210h-303z" />
<glyph unicode="&#x21b;" horiz-adv-x="651" d="M293 -783v117q84 24 124 74q20 24 30 57t10 73v25h-164v301h303v-289q0 -151 -75.5 -240.5t-227.5 -117.5zM610 -8l-96 -3l-70 -3q-166 0 -228 63.5t-62 245.5v588h-144v204h144v297h288v-297h168v-204h-168v-602q0 -42 19 -57q21 -13 78 -13h71v-219z" />
<glyph unicode="&#x21e;" horiz-adv-x="1522" d="M446 2003h139l176 -219l174 219h141l-196 -370h-238zM152 0v1473h305v-549h608v549h305v-1473h-305v653h-608v-653h-305z" />
<glyph unicode="&#x21f;" horiz-adv-x="1233" d="M303 1965h139l176 -219l174 219h141l-196 -370h-238zM133 0v1473h289v-506q59 74 140.5 111.5t182.5 37.5q93 0 172.5 -33t126.5 -94q31 -38 45.5 -94t14.5 -170v-20v-705h-289v569q0 201 -37 253t-133 52q-102 0 -162.5 -60.5t-60.5 -168.5v-645h-289z" />
<glyph unicode="&#x226;" horiz-adv-x="1405" d="M581 1633v258h236v-258h-236zM700 1178l-204 -627h409zM524 1473h350l531 -1473h-318l-100 303h-571l-97 -303h-319z" />
<glyph unicode="&#x227;" horiz-adv-x="1151" d="M435 1248v258h236v-258h-236zM750 135q-54 -82 -144 -128t-207 -46q-156 0 -242.5 90.5t-86.5 255.5q0 153 85 233.5t283 112.5l118 16q185 24 185 107q0 66 -41 94.5t-137 28.5q-88 0 -135 -35t-47 -100v-16h-272v20q0 164 117 261t327 97q228 0 349.5 -78.5 t121.5 -228.5v-618q0 -70 13 -101t48 -51v-49h-303q-12 22 -23 62l-6 30zM745 535q-63 -30 -164 -53l-95 -21q-77 -21 -107.5 -54.5t-30.5 -91.5q0 -60 39.5 -95.5t104.5 -35.5q115 0 184 66t69 182v103z" />
<glyph unicode="&#x228;" horiz-adv-x="1337" d="M475 -422v129l64 -15q38 -9 92 -18q24 -4 52 -7t48 -3q49 0 74.5 17.5t25.5 55.5t-29 54t-92 16h-35q-17 0 -22 -2v211h102v-90h15q115 0 175 -48t60 -143q0 -98 -66.5 -149t-197.5 -51q-62 0 -120 11l-33 5q-13 2 -37 8zM152 0v1473h1069v-256h-770v-314h704v-252h-704 v-379h806v-272h-1105z" />
<glyph unicode="&#x229;" horiz-adv-x="1167" d="M355 -459v129l64 -15q38 -9 92 -18q24 -4 52 -7t48 -3q49 0 74.5 17.5t25.5 55.5t-29 54t-92 16h-35q-17 0 -22 -2v211h102v-90h15q115 0 175 -48t60 -143q0 -98 -66.5 -149t-197.5 -51q-62 0 -120 11l-33 5q-13 2 -37 8zM797 330h290q-43 -170 -177 -268.5t-326 -98.5 q-234 0 -373 158.5t-139 429.5q0 267 136 421t372 154q249 0 385.5 -151.5t136.5 -431.5l-1 -47v-12q0 -7 -2 -17h-726q0 -63 15 -110t47 -83q57 -65 163 -65q78 0 124.5 29.5t74.5 91.5zM373 658h428q0 105 -57 165t-158 60q-95 0 -150 -58q-28 -29 -45.5 -72t-17.5 -95z " />
<glyph unicode="&#x22a;" horiz-adv-x="1616" d="M522 2029v156h574v-156h-574zM397 735q0 -243 108 -377.5t302 -134.5t304 135.5t110 376.5q0 243 -108.5 377.5t-305.5 134.5q-192 0 -301 -134t-109 -378zM88 735q0 357 194.5 566.5t524.5 209.5t525 -210q98 -105 147 -247t49 -319q0 -354 -195.5 -565t-525.5 -211 t-524.5 210.5t-194.5 565.5zM870 1661v246h226v-246h-226zM522 1661v246h226v-246h-226z" />
<glyph unicode="&#x22b;" horiz-adv-x="1245" d="M336 1644v156h574v-156h-574zM367 545q0 -160 66 -250q34 -44 81.5 -66t108.5 -22q120 0 187 88t67 250q0 159 -66.5 247.5t-187.5 88.5q-123 0 -189.5 -87.5t-66.5 -248.5zM72 545q0 269 147 425t404 156q254 0 402.5 -156t148.5 -425q0 -272 -147.5 -427t-403.5 -155 q-255 0 -403 155t-148 427zM684 1276v246h226v-246h-226zM336 1276v246h226v-246h-226z" />
<glyph unicode="&#x22c;" horiz-adv-x="1616" d="M784 2045v156h574v-156h-574zM397 735q0 -243 108 -377.5t302 -134.5t304 135.5t110 376.5q0 243 -108.5 377.5t-305.5 134.5q-192 0 -301 -134t-109 -378zM88 735q0 357 194.5 566.5t524.5 209.5t525 -210q98 -105 147 -247t49 -319q0 -354 -195.5 -565t-525.5 -211 t-524.5 210.5t-194.5 565.5zM1126 1923q-26 -125 -77 -184.5t-131 -59.5h-15h-12l-12 2l-36 9l-87 26l-35 7l-31 3q-31 0 -53 -18t-35 -59h-110q24 121 74 178t130 57q25 0 42 -4q22 -3 44 -10l93 -25l25 -6l30 -2q29 0 51 21t35 65h110z" />
<glyph unicode="&#x22d;" horiz-adv-x="1245" d="M598 1660v156h574v-156h-574zM367 545q0 -160 66 -250q34 -44 81.5 -66t108.5 -22q120 0 187 88t67 250q0 159 -66.5 247.5t-187.5 88.5q-123 0 -189.5 -87.5t-66.5 -248.5zM72 545q0 269 147 425t404 156q254 0 402.5 -156t148.5 -425q0 -272 -147.5 -427t-403.5 -155 q-255 0 -403 155t-148 427zM940 1538q-26 -125 -77 -184.5t-131 -59.5h-15h-12l-12 2l-36 9l-87 26l-35 7l-31 3q-31 0 -53 -18t-35 -59h-110q24 121 74 178t130 57q25 0 42 -4q22 -3 44 -10l93 -25l25 -6l30 -2q29 0 51 21t35 65h110z" />
<glyph unicode="&#x22e;" horiz-adv-x="1616" d="M689 1633v258h236v-258h-236zM397 735q0 -243 108 -377.5t302 -134.5t304 135.5t110 376.5q0 243 -108.5 377.5t-305.5 134.5q-192 0 -301 -134t-109 -378zM88 735q0 357 194.5 566.5t524.5 209.5t525 -210q98 -105 147 -247t49 -319q0 -354 -195.5 -565t-525.5 -211 t-524.5 210.5t-194.5 565.5z" />
<glyph unicode="&#x22f;" horiz-adv-x="1245" d="M505 1248v258h236v-258h-236zM367 545q0 -160 66 -250q34 -44 81.5 -66t108.5 -22q120 0 187 88t67 250q0 159 -66.5 247.5t-187.5 88.5q-123 0 -189.5 -87.5t-66.5 -248.5zM72 545q0 269 147 425t404 156q254 0 402.5 -156t148.5 -425q0 -272 -147.5 -427t-403.5 -155 q-255 0 -403 155t-148 427z" />
<glyph unicode="&#x230;" horiz-adv-x="1616" d="M520 2013v156h574v-156h-574zM689 1633v258h236v-258h-236zM397 735q0 -243 108 -377.5t302 -134.5t304 135.5t110 376.5q0 243 -108.5 377.5t-305.5 134.5q-192 0 -301 -134t-109 -378zM88 735q0 357 194.5 566.5t524.5 209.5t525 -210q98 -105 147 -247t49 -319 q0 -354 -195.5 -565t-525.5 -211t-524.5 210.5t-194.5 565.5z" />
<glyph unicode="&#x2c6;" horiz-adv-x="1024" d="M197 1217l196 370h238l196 -370h-141l-174 217l-176 -217h-139z" />
<glyph unicode="&#x2c7;" horiz-adv-x="1024" d="M197 1587h139l176 -219l174 219h141l-196 -370h-238z" />
<glyph unicode="&#x2d8;" horiz-adv-x="1024" d="M203 1552h123q0 -35 12.5 -63.5t37.5 -48.5q46 -35 136 -35t132.5 34.5t51.5 112.5h123q0 -76 -21.5 -132t-63.5 -98q-76 -73 -222 -73q-148 0 -223 74q-39 39 -63 96q-11 27 -17 60t-6 73z" />
<glyph unicode="&#x2d9;" horiz-adv-x="1024" d="M395 1270v258h236v-258h-236z" />
<glyph unicode="&#x2da;" horiz-adv-x="1024" d="M391 1442q0 -53 34.5 -88t86.5 -35q49 0 87 36t38 87q0 48 -37 85.5t-88 37.5q-50 0 -85.5 -36.5t-35.5 -86.5zM248 1442q0 111 76.5 188.5t187.5 77.5q109 0 188.5 -77.5t79.5 -188.5t-77.5 -188.5t-190.5 -77.5q-111 0 -187.5 77.5t-76.5 188.5z" />
<glyph unicode="&#x2db;" horiz-adv-x="1024" d="M627 0q-58 -46 -95 -102q-15 -26 -24 -51q-4 -13 -6 -24t-2 -28q0 -40 20 -60t62 -20h102v-174h-106q-117 0 -177.5 45.5t-60.5 139.5q0 68 45 136q22 31 58 65.5t87 72.5h97z" />
<glyph unicode="&#x2dc;" horiz-adv-x="1024" d="M829 1538q-26 -125 -77 -184.5t-131 -59.5h-15h-12l-12 2l-36 9l-87 26l-35 7l-31 3q-31 0 -53 -18t-35 -59h-110q24 121 74 178t130 57q25 0 42 -4q22 -3 44 -10l93 -25l25 -6l30 -2q29 0 51 21t35 65h110z" />
<glyph unicode="&#x1e00;" horiz-adv-x="1405" d="M579 -388q0 -53 34.5 -88t86.5 -35q49 0 87 36t38 87q0 48 -37 85.5t-88 37.5q-50 0 -85.5 -36.5t-35.5 -86.5zM436 -388q0 111 76.5 188.5t187.5 77.5q109 0 188.5 -77.5t79.5 -188.5t-77.5 -188.5t-190.5 -77.5q-111 0 -187.5 77.5t-76.5 188.5zM700 1178l-204 -627 h409zM524 1473h350l531 -1473h-318l-100 303h-571l-97 -303h-319z" />
<glyph unicode="&#x1e01;" horiz-adv-x="1151" d="M276 -427q0 -53 34.5 -88t86.5 -35q49 0 87 36t38 87q0 48 -37 85.5t-88 37.5q-50 0 -85.5 -36.5t-35.5 -86.5zM133 -427q0 111 76.5 188.5t187.5 77.5q109 0 188.5 -77.5t79.5 -188.5t-77.5 -188.5t-190.5 -77.5q-111 0 -187.5 77.5t-76.5 188.5zM750 135 q-54 -82 -144 -128t-207 -46q-156 0 -242.5 90.5t-86.5 255.5q0 153 85 233.5t283 112.5l118 16q185 24 185 107q0 66 -41 94.5t-137 28.5q-88 0 -135 -35t-47 -100v-16h-272v20q0 164 117 261t327 97q228 0 349.5 -78.5t121.5 -228.5v-618q0 -70 13 -101t48 -51v-49h-303 q-12 22 -23 62l-6 30zM745 535q-63 -30 -164 -53l-95 -21q-77 -21 -107.5 -54.5t-30.5 -91.5q0 -60 39.5 -95.5t104.5 -35.5q115 0 184 66t69 182v103z" />
<glyph unicode="&#x1e02;" horiz-adv-x="1442" d="M638 1633v258h236v-258h-236zM442 266h359q126 0 184.5 45.5t58.5 145.5q0 101 -58 147.5t-187 46.5h-357v-385zM442 903h346q110 0 163 39t53 121q0 81 -51.5 117.5t-166.5 36.5h-344v-314zM152 0v1473h694q223 0 343 -95.5t120 -277.5q0 -112 -42.5 -185.5 t-133.5 -117.5q111 -44 169 -131.5t58 -216.5q0 -213 -140 -331t-397 -118h-671z" />
<glyph unicode="&#x1e03;" horiz-adv-x="1255" d="M541 1595v258h236v-258h-236zM133 1473h283v-521q52 80 134 126t187 46q195 0 321 -162.5t126 -422.5q0 -259 -125 -417.5t-326 -158.5q-107 0 -181.5 43t-141.5 141v-147h-277v1473zM895 551q0 148 -63 234.5t-173 86.5q-113 0 -178 -84t-65 -237q0 -165 60 -251.5 t177 -86.5t179.5 87.5t62.5 250.5z" />
<glyph unicode="&#x1e04;" horiz-adv-x="1442" d="M369 -380v258h236v-258h-236zM442 266h359q126 0 184.5 45.5t58.5 145.5q0 101 -58 147.5t-187 46.5h-357v-385zM442 903h346q110 0 163 39t53 121q0 81 -51.5 117.5t-166.5 36.5h-344v-314zM152 0v1473h694q223 0 343 -95.5t120 -277.5q0 -112 -42.5 -185.5 t-133.5 -117.5q111 -44 169 -131.5t58 -216.5q0 -213 -140 -331t-397 -118h-671z" />
<glyph unicode="&#x1e05;" horiz-adv-x="1255" d="M615 -417v258h236v-258h-236zM133 1473h283v-521q52 80 134 126t187 46q195 0 321 -162.5t126 -422.5q0 -259 -125 -417.5t-326 -158.5q-107 0 -181.5 43t-141.5 141v-147h-277v1473zM895 551q0 148 -63 234.5t-173 86.5q-113 0 -178 -84t-65 -237q0 -165 60 -251.5 t177 -86.5t179.5 87.5t62.5 250.5z" />
<glyph unicode="&#x1e06;" horiz-adv-x="1442" d="M201 -278v156h574v-156h-574zM442 266h359q126 0 184.5 45.5t58.5 145.5q0 101 -58 147.5t-187 46.5h-357v-385zM442 903h346q110 0 163 39t53 121q0 81 -51.5 117.5t-166.5 36.5h-344v-314zM152 0v1473h694q223 0 343 -95.5t120 -277.5q0 -112 -42.5 -185.5 t-133.5 -117.5q111 -44 169 -131.5t58 -216.5q0 -213 -140 -331t-397 -118h-671z" />
<glyph unicode="&#x1e07;" horiz-adv-x="1255" d="M446 -315v156h574v-156h-574zM133 1473h283v-521q52 80 134 126t187 46q195 0 321 -162.5t126 -422.5q0 -259 -125 -417.5t-326 -158.5q-107 0 -181.5 43t-141.5 141v-147h-277v1473zM895 551q0 148 -63 234.5t-173 86.5q-113 0 -178 -84t-65 -237q0 -165 60 -251.5 t177 -86.5t179.5 87.5t62.5 250.5z" />
<glyph unicode="&#x1e08;" horiz-adv-x="1524" d="M1191 2003l-313 -370h-142l197 370h258zM737 -40q-145 0 -261.5 52t-204.5 151q-181 205 -181 572q0 376 185 576t532 200q280 0 445 -138q84 -70 132 -167t48 -221h-299q-18 122 -101.5 189t-224.5 67q-197 0 -304 -129q-51 -65 -77.5 -159t-26.5 -218 q0 -240 103.5 -371t294.5 -131q139 0 225.5 70t114.5 203h297q0 -121 -50.5 -221.5t-143.5 -177.5q-82 -68 -178 -106q-54 -20 -108 -30t-115 -10v-51h15q115 0 175 -48t60 -143q0 -98 -66.5 -149t-197.5 -51q-62 0 -120 11l-33 5q-13 2 -37 8l-76 19v129l64 -15 q38 -9 92 -18q24 -4 52 -7t48 -3q49 0 74.5 17.5t25.5 55.5t-29 54t-92 16h-35q-17 0 -22 -2v171z" />
<glyph unicode="&#x1e09;" horiz-adv-x="1128" d="M972 1618l-313 -370h-142l197 370h258zM537 -36q-101 0 -182.5 38.5t-148.5 114.5q-134 155 -134 428q0 274 138 427.5t378 153.5q210 0 338 -112q66 -57 103 -133q20 -43 30 -85.5t10 -93.5h-289q-12 87 -61 133t-129 46q-108 0 -161.5 -85t-53.5 -255q0 -156 55.5 -241 t159.5 -85q81 0 128.5 47.5t65.5 147.5h287q-18 -207 -151 -327q-111 -102 -281 -117v-56h15q115 0 175 -48t60 -143q0 -98 -66.5 -149t-197.5 -51q-62 0 -120 11l-33 5q-13 2 -37 8l-76 19v129l64 -15q38 -9 92 -18q24 -4 52 -7t48 -3q49 0 74.5 17.5t25.5 55.5t-29 54 t-92 16h-35q-17 0 -22 -2v175z" />
<glyph unicode="&#x1e0a;" horiz-adv-x="1489" d="M659 1633v258h236v-258h-236zM449 266h243q209 0 304.5 111.5t95.5 357.5q0 247 -87.5 363t-275.5 116h-280v-948zM152 0v1473h577q337 0 504.5 -184t167.5 -554q0 -202 -60.5 -355.5t-179.5 -248.5q-85 -67 -199.5 -99t-314.5 -32h-495z" />
<glyph unicode="&#x1e0b;" horiz-adv-x="1260" d="M482 1595v258h236v-258h-236zM1126 1473v-1473h-276v147q-61 -93 -140.5 -138.5t-185.5 -45.5q-199 0 -324.5 159.5t-125.5 416.5q0 258 124.5 421.5t321.5 163.5q56 0 99.5 -9.5t87.5 -34.5q80 -42 137 -128v521h282zM365 551q0 -166 62 -252t179 -86q116 0 177 87 t61 251q0 154 -63.5 237.5t-180.5 83.5q-108 0 -171.5 -84.5t-63.5 -236.5z" />
<glyph unicode="&#x1e0c;" horiz-adv-x="1489" d="M281 -380v258h236v-258h-236zM449 266h243q209 0 304.5 111.5t95.5 357.5q0 247 -87.5 363t-275.5 116h-280v-948zM152 0v1473h577q337 0 504.5 -184t167.5 -554q0 -202 -60.5 -355.5t-179.5 -248.5q-85 -67 -199.5 -99t-314.5 -32h-495z" />
<glyph unicode="&#x1e0d;" horiz-adv-x="1260" d="M406 -417v258h236v-258h-236zM1126 1473v-1473h-276v147q-61 -93 -140.5 -138.5t-185.5 -45.5q-199 0 -324.5 159.5t-125.5 416.5q0 258 124.5 421.5t321.5 163.5q56 0 99.5 -9.5t87.5 -34.5q80 -42 137 -128v521h282zM365 551q0 -166 62 -252t179 -86q116 0 177 87 t61 251q0 154 -63.5 237.5t-180.5 83.5q-108 0 -171.5 -84.5t-63.5 -236.5z" />
<glyph unicode="&#x1e0e;" horiz-adv-x="1489" d="M113 -278v156h574v-156h-574zM449 266h243q209 0 304.5 111.5t95.5 357.5q0 247 -87.5 363t-275.5 116h-280v-948zM152 0v1473h577q337 0 504.5 -184t167.5 -554q0 -202 -60.5 -355.5t-179.5 -248.5q-85 -67 -199.5 -99t-314.5 -32h-495z" />
<glyph unicode="&#x1e0f;" horiz-adv-x="1260" d="M237 -315v156h574v-156h-574zM1126 1473v-1473h-276v147q-61 -93 -140.5 -138.5t-185.5 -45.5q-199 0 -324.5 159.5t-125.5 416.5q0 258 124.5 421.5t321.5 163.5q56 0 99.5 -9.5t87.5 -34.5q80 -42 137 -128v521h282zM365 551q0 -166 62 -252t179 -86q116 0 177 87 t61 251q0 154 -63.5 237.5t-180.5 83.5q-108 0 -171.5 -84.5t-63.5 -236.5z" />
<glyph unicode="&#x1e10;" horiz-adv-x="1489" d="M171 -422v129l64 -15q38 -9 92 -18q24 -4 52 -7t48 -3q49 0 74.5 17.5t25.5 55.5t-29 54t-92 16h-35q-17 0 -22 -2v211h102v-90h15q115 0 175 -48t60 -143q0 -98 -66.5 -149t-197.5 -51q-62 0 -120 11l-33 5q-13 2 -37 8zM449 266h243q209 0 304.5 111.5t95.5 357.5 q0 247 -87.5 363t-275.5 116h-280v-948zM152 0v1473h577q337 0 504.5 -184t167.5 -554q0 -202 -60.5 -355.5t-179.5 -248.5q-85 -67 -199.5 -99t-314.5 -32h-495z" />
<glyph unicode="&#x1e11;" horiz-adv-x="1260" d="M295 -459v129l64 -15q38 -9 92 -18q24 -4 52 -7t48 -3q49 0 74.5 17.5t25.5 55.5t-29 54t-92 16h-35q-17 0 -22 -2v211h102v-90h15q115 0 175 -48t60 -143q0 -98 -66.5 -149t-197.5 -51q-62 0 -120 11l-33 5q-13 2 -37 8zM1126 1473v-1473h-276v147 q-61 -93 -140.5 -138.5t-185.5 -45.5q-199 0 -324.5 159.5t-125.5 416.5q0 258 124.5 421.5t321.5 163.5q56 0 99.5 -9.5t87.5 -34.5q80 -42 137 -128v521h282zM365 551q0 -166 62 -252t179 -86q116 0 177 87t61 251q0 154 -63.5 237.5t-180.5 83.5q-108 0 -171.5 -84.5 t-63.5 -236.5z" />
<glyph unicode="&#x1e12;" horiz-adv-x="1489" d="M85 -492l196 370h238l196 -370h-141l-174 217l-176 -217h-139zM449 266h243q209 0 304.5 111.5t95.5 357.5q0 247 -87.5 363t-275.5 116h-280v-948zM152 0v1473h577q337 0 504.5 -184t167.5 -554q0 -202 -60.5 -355.5t-179.5 -248.5q-85 -67 -199.5 -99t-314.5 -32h-495z " />
<glyph unicode="&#x1e13;" horiz-adv-x="1260" d="M209 -529l196 370h238l196 -370h-141l-174 217l-176 -217h-139zM1126 1473v-1473h-276v147q-61 -93 -140.5 -138.5t-185.5 -45.5q-199 0 -324.5 159.5t-125.5 416.5q0 258 124.5 421.5t321.5 163.5q56 0 99.5 -9.5t87.5 -34.5q80 -42 137 -128v521h282zM365 551 q0 -166 62 -252t179 -86q116 0 177 87t61 251q0 154 -63.5 237.5t-180.5 83.5q-108 0 -171.5 -84.5t-63.5 -236.5z" />
<glyph unicode="&#x1e14;" horiz-adv-x="1337" d="M303 2281h258l197 -370h-142zM399 1633v156h574v-156h-574zM152 0v1473h1069v-256h-770v-314h704v-252h-704v-379h806v-272h-1105z" />
<glyph unicode="&#x1e15;" horiz-adv-x="1167" d="M196 1896h258l197 -370h-142zM293 1248v156h574v-156h-574zM797 330h290q-43 -170 -177 -268.5t-326 -98.5q-234 0 -373 158.5t-139 429.5q0 267 136 421t372 154q249 0 385.5 -151.5t136.5 -431.5l-1 -47v-12q0 -7 -2 -17h-726q0 -63 15 -110t47 -83q57 -65 163 -65 q78 0 124.5 29.5t74.5 91.5zM373 658h428q0 105 -57 165t-158 60q-95 0 -150 -58q-28 -29 -45.5 -72t-17.5 -95z" />
<glyph unicode="&#x1e16;" horiz-adv-x="1337" d="M1071 2281l-313 -370h-142l197 370h258zM399 1633v156h574v-156h-574zM152 0v1473h1069v-256h-770v-314h704v-252h-704v-379h806v-272h-1105z" />
<glyph unicode="&#x1e17;" horiz-adv-x="1167" d="M964 1896l-313 -370h-142l197 370h258zM293 1248v156h574v-156h-574zM797 330h290q-43 -170 -177 -268.5t-326 -98.5q-234 0 -373 158.5t-139 429.5q0 267 136 421t372 154q249 0 385.5 -151.5t136.5 -431.5l-1 -47v-12q0 -7 -2 -17h-726q0 -63 15 -110t47 -83 q57 -65 163 -65q78 0 124.5 29.5t74.5 91.5zM373 658h428q0 105 -57 165t-158 60q-95 0 -150 -58q-28 -29 -45.5 -72t-17.5 -95z" />
<glyph unicode="&#x1e18;" horiz-adv-x="1337" d="M389 -492l196 370h238l196 -370h-141l-174 217l-176 -217h-139zM152 0v1473h1069v-256h-770v-314h704v-252h-704v-379h806v-272h-1105z" />
<glyph unicode="&#x1e19;" horiz-adv-x="1167" d="M269 -529l196 370h238l196 -370h-141l-174 217l-176 -217h-139zM797 330h290q-43 -170 -177 -268.5t-326 -98.5q-234 0 -373 158.5t-139 429.5q0 267 136 421t372 154q249 0 385.5 -151.5t136.5 -431.5l-1 -47v-12q0 -7 -2 -17h-726q0 -63 15 -110t47 -83q57 -65 163 -65 q78 0 124.5 29.5t74.5 91.5zM373 658h428q0 105 -57 165t-158 60q-95 0 -150 -58q-28 -29 -45.5 -72t-17.5 -95z" />
<glyph unicode="&#x1e1a;" horiz-adv-x="1337" d="M1021 -122q-26 -125 -77 -184.5t-131 -59.5h-15h-12l-12 2l-36 9l-87 26l-35 7l-31 3q-31 0 -53 -18t-35 -59h-110q24 121 74 178t130 57q25 0 42 -4q22 -3 44 -10l93 -25l25 -6l30 -2q29 0 51 21t35 65h110zM152 0v1473h1069v-256h-770v-314h704v-252h-704v-379h806 v-272h-1105z" />
<glyph unicode="&#x1e1b;" horiz-adv-x="1167" d="M901 -159q-26 -125 -77 -184.5t-131 -59.5h-15h-12l-12 2l-36 9l-87 26l-35 7l-31 3q-31 0 -53 -18t-35 -59h-110q24 121 74 178t130 57q25 0 42 -4q22 -3 44 -10l93 -25l25 -6l30 -2q29 0 51 21t35 65h110zM797 330h290q-43 -170 -177 -268.5t-326 -98.5 q-234 0 -373 158.5t-139 429.5q0 267 136 421t372 154q249 0 385.5 -151.5t136.5 -431.5l-1 -47v-12q0 -7 -2 -17h-726q0 -63 15 -110t47 -83q57 -65 163 -65q78 0 124.5 29.5t74.5 91.5zM373 658h428q0 105 -57 165t-158 60q-95 0 -150 -58q-28 -29 -45.5 -72t-17.5 -95z " />
<glyph unicode="&#x1e1c;" horiz-adv-x="1337" d="M379 1936h123q0 -35 12.5 -63.5t37.5 -48.5q46 -35 136 -35t132.5 34.5t51.5 112.5h123q0 -76 -21.5 -132t-63.5 -98q-76 -73 -222 -73q-148 0 -223 74q-39 39 -63 96q-11 27 -17 60t-6 73zM475 -422v129l64 -15q38 -9 92 -18q24 -4 52 -7t48 -3q49 0 74.5 17.5 t25.5 55.5t-29 54t-92 16h-35q-17 0 -22 -2v211h102v-90h15q115 0 175 -48t60 -143q0 -98 -66.5 -149t-197.5 -51q-62 0 -120 11l-33 5q-13 2 -37 8zM152 0v1473h1069v-256h-770v-314h704v-252h-704v-379h806v-272h-1105z" />
<glyph unicode="&#x1e1d;" horiz-adv-x="1167" d="M272 1551h123q0 -35 12.5 -63.5t37.5 -48.5q46 -35 136 -35t132.5 34.5t51.5 112.5h123q0 -76 -21.5 -132t-63.5 -98q-76 -73 -222 -73q-148 0 -223 74q-39 39 -63 96q-11 27 -17 60t-6 73zM355 -459v129l64 -15q38 -9 92 -18q24 -4 52 -7t48 -3q49 0 74.5 17.5 t25.5 55.5t-29 54t-92 16h-35q-17 0 -22 -2v211h102v-90h15q115 0 175 -48t60 -143q0 -98 -66.5 -149t-197.5 -51q-62 0 -120 11l-33 5q-13 2 -37 8zM797 330h290q-43 -170 -177 -268.5t-326 -98.5q-234 0 -373 158.5t-139 429.5q0 267 136 421t372 154q249 0 385.5 -151.5 t136.5 -431.5l-1 -47v-12q0 -7 -2 -17h-726q0 -63 15 -110t47 -83q57 -65 163 -65q78 0 124.5 29.5t74.5 91.5zM373 658h428q0 105 -57 165t-158 60q-95 0 -150 -58q-28 -29 -45.5 -72t-17.5 -95z" />
<glyph unicode="&#x1e1e;" horiz-adv-x="1225" d="M548 1633v258h236v-258h-236zM152 0v1473h1028v-256h-729v-334h639v-256h-639v-627h-299z" />
<glyph unicode="&#x1e1f;" horiz-adv-x="664" d="M386 1605v258h236v-258h-236zM178 0v883h-155v204h155v101q0 149 78 222t248 73l30 -1l35 -1l35 -1h16q6 0 23 -4v-231h-76q-65 0 -85.5 -17t-20.5 -65v-76h182v-204h-180v-883h-285z" />
<glyph unicode="&#x1e20;" horiz-adv-x="1591" d="M501 1633v156h574v-156h-574zM1212 174q-81 -111 -187 -163q-53 -26 -114.5 -39t-130.5 -13q-309 0 -500.5 214.5t-191.5 563.5q0 177 47 316t144 246q191 212 509 212q276 0 450 -132t210 -365h-309q-27 114 -114.5 174.5t-225.5 60.5q-185 0 -290.5 -135.5 t-105.5 -374.5q0 -240 110 -376t302 -136q144 0 239.5 83.5t121.5 234.5h-334v252h610v-797h-203z" />
<glyph unicode="&#x1e21;" horiz-adv-x="1249" d="M243 1248v156h574v-156h-574zM365 561q0 -153 61.5 -235t175.5 -82t175 82t61 239q0 146 -62.5 229t-177.5 83q-110 0 -172 -84q-29 -40 -45 -99.5t-16 -132.5zM102 -105l318 1q12 -53 57 -81t117 -28q135 0 189 58q27 29 41 81.5t14 130.5v97q-44 -77 -119 -115.5 t-184 -38.5q-208 0 -336.5 150.5t-128.5 400.5q0 264 124.5 419.5t335.5 155.5q107 0 186 -42t128 -128v131h276v-1015q0 -176 -31 -263.5t-110 -148.5q-63 -48 -167 -76q-53 -14 -108.5 -21t-123.5 -7q-218 0 -343 89q-64 44 -99.5 107t-35.5 143z" />
<glyph unicode="&#x1e22;" horiz-adv-x="1522" d="M643 1633v258h236v-258h-236zM152 0v1473h305v-549h608v549h305v-1473h-305v653h-608v-653h-305z" />
<glyph unicode="&#x1e23;" horiz-adv-x="1233" d="M501 1595v258h236v-258h-236zM133 0v1473h289v-506q59 74 140.5 111.5t182.5 37.5q93 0 172.5 -33t126.5 -94q31 -38 45.5 -94t14.5 -170v-20v-705h-289v569q0 201 -37 253t-133 52q-102 0 -162.5 -60.5t-60.5 -168.5v-645h-289z" />
<glyph unicode="&#x1e24;" horiz-adv-x="1522" d="M643 -380v258h236v-258h-236zM152 0v1473h305v-549h608v549h305v-1473h-305v653h-608v-653h-305z" />
<glyph unicode="&#x1e25;" horiz-adv-x="1233" d="M501 -380v258h236v-258h-236zM133 0v1473h289v-506q59 74 140.5 111.5t182.5 37.5q93 0 172.5 -33t126.5 -94q31 -38 45.5 -94t14.5 -170v-20v-705h-289v569q0 201 -37 253t-133 52q-102 0 -162.5 -60.5t-60.5 -168.5v-645h-289z" />
<glyph unicode="&#x1e26;" horiz-adv-x="1522" d="M822 1633v246h226v-246h-226zM474 1633v246h226v-246h-226zM152 0v1473h305v-549h608v549h305v-1473h-305v653h-608v-653h-305z" />
<glyph unicode="&#x1e27;" horiz-adv-x="1233" d="M679 1595v246h226v-246h-226zM331 1595v246h226v-246h-226zM133 0v1473h289v-506q59 74 140.5 111.5t182.5 37.5q93 0 172.5 -33t126.5 -94q31 -38 45.5 -94t14.5 -170v-20v-705h-289v569q0 201 -37 253t-133 52q-102 0 -162.5 -60.5t-60.5 -168.5v-645h-289z" />
<glyph unicode="&#x1e28;" horiz-adv-x="1522" d="M481 -422v129l64 -15q38 -9 92 -18q24 -4 52 -7t48 -3q49 0 74.5 17.5t25.5 55.5t-29 54t-92 16h-35q-17 0 -22 -2v211h102v-90h15q115 0 175 -48t60 -143q0 -98 -66.5 -149t-197.5 -51q-62 0 -120 11l-33 5q-13 2 -37 8zM152 0v1473h305v-549h608v549h305v-1473h-305 v653h-608v-653h-305z" />
<glyph unicode="&#x1e29;" horiz-adv-x="1233" d="M339 -422v129l64 -15q38 -9 92 -18q24 -4 52 -7t48 -3q49 0 74.5 17.5t25.5 55.5t-29 54t-92 16h-35q-17 0 -22 -2v211h102v-90h15q115 0 175 -48t60 -143q0 -98 -66.5 -149t-197.5 -51q-62 0 -120 11l-33 5q-13 2 -37 8zM133 0v1473h289v-506q59 74 140.5 111.5 t182.5 37.5q93 0 172.5 -33t126.5 -94q31 -38 45.5 -94t14.5 -170v-20v-705h-289v569q0 201 -37 253t-133 52q-102 0 -162.5 -60.5t-60.5 -168.5v-645h-289z" />
<glyph unicode="&#x1e2a;" horiz-adv-x="1522" d="M453 -122h123q0 -35 12.5 -63.5t37.5 -48.5q46 -35 136 -35t132.5 34.5t51.5 112.5h123q0 -76 -21.5 -132t-63.5 -98q-76 -73 -222 -73q-148 0 -223 74q-39 39 -63 96q-11 27 -17 60t-6 73zM152 0v1473h305v-549h608v549h305v-1473h-305v653h-608v-653h-305z" />
<glyph unicode="&#x1e2b;" horiz-adv-x="1233" d="M311 -122h123q0 -35 12.5 -63.5t37.5 -48.5q46 -35 136 -35t132.5 34.5t51.5 112.5h123q0 -76 -21.5 -132t-63.5 -98q-76 -73 -222 -73q-148 0 -223 74q-39 39 -63 96q-11 27 -17 60t-6 73zM133 0v1473h289v-506q59 74 140.5 111.5t182.5 37.5q93 0 172.5 -33t126.5 -94 q31 -38 45.5 -94t14.5 -170v-20v-705h-289v569q0 201 -37 253t-133 52q-102 0 -162.5 -60.5t-60.5 -168.5v-645h-289z" />
<glyph unicode="&#x1e2c;" horiz-adv-x="629" d="M631 -122q-26 -125 -77 -184.5t-131 -59.5h-15h-12l-12 2l-36 9l-87 26l-35 7l-31 3q-31 0 -53 -18t-35 -59h-110q24 121 74 178t130 57q25 0 42 -4q22 -3 44 -10l93 -25l25 -6l30 -2q29 0 51 21t35 65h110zM162 0v1473h303v-1473h-303z" />
<glyph unicode="&#x1e2d;" horiz-adv-x="557" d="M595 -122q-26 -125 -77 -184.5t-131 -59.5h-15h-12l-12 2l-36 9l-87 26l-35 7l-31 3q-31 0 -53 -18t-35 -59h-110q24 121 74 178t130 57q25 0 42 -4q22 -3 44 -10l93 -25l25 -6l30 -2q29 0 51 21t35 65h110zM133 1208v265h291v-265h-291zM133 0v1087h291v-1087h-291z" />
<glyph unicode="&#x1e2e;" horiz-adv-x="629" d="M699 2399l-313 -370h-142l197 370h258zM162 0v1473h303v-1473h-303zM376 1661v246h226v-246h-226zM28 1661v246h226v-246h-226z" />
<glyph unicode="&#x1e2f;" horiz-adv-x="557" d="M663 2014l-313 -370h-142l197 370h258zM133 0v1087h291v-1087h-291zM340 1276v246h226v-246h-226zM-8 1276v246h226v-246h-226z" />
<glyph unicode="&#x1e30;" horiz-adv-x="1440" d="M1165 2003l-313 -370h-142l197 370h258zM152 0v1473h303v-605l575 605h379l-588 -596l641 -877h-370l-480 674l-157 -156v-518h-303z" />
<glyph unicode="&#x1e31;" horiz-adv-x="1135" d="M659 1965l-313 -370h-142l197 370h258zM133 0v1473h283v-773l346 387h350l-379 -403l402 -684h-349l-260 463l-110 -119v-344h-283z" />
<glyph unicode="&#x1e32;" horiz-adv-x="1440" d="M689 -380v258h236v-258h-236zM152 0v1473h303v-605l575 605h379l-588 -596l641 -877h-370l-480 674l-157 -156v-518h-303z" />
<glyph unicode="&#x1e33;" horiz-adv-x="1135" d="M516 -380v258h236v-258h-236zM133 0v1473h283v-773l346 387h350l-379 -403l402 -684h-349l-260 463l-110 -119v-344h-283z" />
<glyph unicode="&#x1e34;" horiz-adv-x="1440" d="M520 -278v156h574v-156h-574zM152 0v1473h303v-605l575 605h379l-588 -596l641 -877h-370l-480 674l-157 -156v-518h-303z" />
<glyph unicode="&#x1e35;" horiz-adv-x="1135" d="M347 -278v156h574v-156h-574zM133 0v1473h283v-773l346 387h350l-379 -403l402 -684h-349l-260 463l-110 -119v-344h-283z" />
<glyph unicode="&#x1e36;" horiz-adv-x="1188" d="M545 -380v258h236v-258h-236zM152 0v1473h303v-1201h719v-272h-1022z" />
<glyph unicode="&#x1e37;" horiz-adv-x="563" d="M165 -380v258h236v-258h-236zM137 0v1473h291v-1473h-291z" />
<glyph unicode="&#x1e38;" horiz-adv-x="1188" d="M17 1633v156h574v-156h-574zM545 -380v258h236v-258h-236zM152 0v1473h303v-1201h719v-272h-1022z" />
<glyph unicode="&#x1e39;" horiz-adv-x="563" d="M-5 1595v156h574v-156h-574zM165 -380v258h236v-258h-236zM137 0v1473h291v-1473h-291z" />
<glyph unicode="&#x1e3a;" horiz-adv-x="1188" d="M376 -278v156h574v-156h-574zM152 0v1473h303v-1201h719v-272h-1022z" />
<glyph unicode="&#x1e3b;" horiz-adv-x="563" d="M-5 -278v156h574v-156h-574zM137 0v1473h291v-1473h-291z" />
<glyph unicode="&#x1e3c;" horiz-adv-x="1188" d="M348 -492l196 370h238l196 -370h-141l-174 217l-176 -217h-139zM152 0v1473h303v-1201h719v-272h-1022z" />
<glyph unicode="&#x1e3d;" horiz-adv-x="563" d="M-33 -492l196 370h238l196 -370h-141l-174 217l-176 -217h-139zM137 0v1473h291v-1473h-291z" />
<glyph unicode="&#x1e3e;" horiz-adv-x="1786" d="M1276 2003l-313 -370h-142l197 370h258zM152 0v1473h448l293 -1121l289 1121h450v-1473h-284v1188l-299 -1188h-310l-303 1188v-1188h-284z" />
<glyph unicode="&#x1e3f;" horiz-adv-x="1796" d="M1395 1618l-313 -370h-142l197 370h258zM127 0v1087h276v-120q58 73 135 112t167 39q102 0 175 -38t128 -122q57 80 136.5 120t172.5 40q161 0 258.5 -96.5t97.5 -261.5v-760h-287v700q0 78 -42.5 122t-118.5 44q-85 0 -135 -55.5t-50 -151.5v-659h-284v698 q0 78 -41.5 123t-116.5 45q-84 0 -134 -57t-50 -152v-657h-287z" />
<glyph unicode="&#x1e40;" horiz-adv-x="1786" d="M774 1633v258h236v-258h-236zM152 0v1473h448l293 -1121l289 1121h450v-1473h-284v1188l-299 -1188h-310l-303 1188v-1188h-284z" />
<glyph unicode="&#x1e41;" horiz-adv-x="1796" d="M893 1248v258h236v-258h-236zM127 0v1087h276v-120q58 73 135 112t167 39q102 0 175 -38t128 -122q57 80 136.5 120t172.5 40q161 0 258.5 -96.5t97.5 -261.5v-760h-287v700q0 78 -42.5 122t-118.5 44q-85 0 -135 -55.5t-50 -151.5v-659h-284v698q0 78 -41.5 123 t-116.5 45q-84 0 -134 -57t-50 -152v-657h-287z" />
<glyph unicode="&#x1e42;" horiz-adv-x="1786" d="M774 -380v258h236v-258h-236zM152 0v1473h448l293 -1121l289 1121h450v-1473h-284v1188l-299 -1188h-310l-303 1188v-1188h-284z" />
<glyph unicode="&#x1e43;" horiz-adv-x="1796" d="M782 -380v258h236v-258h-236zM127 0v1087h276v-120q58 73 135 112t167 39q102 0 175 -38t128 -122q57 80 136.5 120t172.5 40q161 0 258.5 -96.5t97.5 -261.5v-760h-287v700q0 78 -42.5 122t-118.5 44q-85 0 -135 -55.5t-50 -151.5v-659h-284v698q0 78 -41.5 123 t-116.5 45q-84 0 -134 -57t-50 -152v-657h-287z" />
<glyph unicode="&#x1e44;" horiz-adv-x="1518" d="M641 1633v258h236v-258h-236zM152 0v1473h317l598 -1012v1012h299v-1473h-313l-602 1012v-1012h-299z" />
<glyph unicode="&#x1e45;" d="M495 1248v258h236v-258h-236zM127 0v1087h285v-129q58 76 144 118q42 20 87 30q21 4 47 7t51 3q178 0 268.5 -93.5t90.5 -281.5v-741h-291v657q0 117 -39.5 167t-128.5 50q-102 0 -162.5 -60.5t-60.5 -168.5v-645h-291z" />
<glyph unicode="&#x1e46;" horiz-adv-x="1518" d="M641 -380v258h236v-258h-236zM152 0v1473h317l598 -1012v1012h299v-1473h-313l-602 1012v-1012h-299z" />
<glyph unicode="&#x1e47;" d="M495 -380v258h236v-258h-236zM127 0v1087h285v-129q58 76 144 118q42 20 87 30q21 4 47 7t51 3q178 0 268.5 -93.5t90.5 -281.5v-741h-291v657q0 117 -39.5 167t-128.5 50q-102 0 -162.5 -60.5t-60.5 -168.5v-645h-291z" />
<glyph unicode="&#x1e48;" horiz-adv-x="1518" d="M472 -278v156h574v-156h-574zM152 0v1473h317l598 -1012v1012h299v-1473h-313l-602 1012v-1012h-299z" />
<glyph unicode="&#x1e49;" d="M327 -278v156h574v-156h-574zM127 0v1087h285v-129q58 76 144 118q42 20 87 30q21 4 47 7t51 3q178 0 268.5 -93.5t90.5 -281.5v-741h-291v657q0 117 -39.5 167t-128.5 50q-102 0 -162.5 -60.5t-60.5 -168.5v-645h-291z" />
<glyph unicode="&#x1e4a;" horiz-adv-x="1518" d="M444 -492l196 370h238l196 -370h-141l-174 217l-176 -217h-139zM152 0v1473h317l598 -1012v1012h299v-1473h-313l-602 1012v-1012h-299z" />
<glyph unicode="&#x1e4b;" d="M299 -492l196 370h238l196 -370h-141l-174 217l-176 -217h-139zM127 0v1087h285v-129q58 76 144 118q42 20 87 30q21 4 47 7t51 3q178 0 268.5 -93.5t90.5 -281.5v-741h-291v657q0 117 -39.5 167t-128.5 50q-102 0 -162.5 -60.5t-60.5 -168.5v-645h-291z" />
<glyph unicode="&#x1e4c;" horiz-adv-x="1616" d="M1455 2415l-313 -370h-142l197 370h258zM397 735q0 -243 108 -377.5t302 -134.5t304 135.5t110 376.5q0 243 -108.5 377.5t-305.5 134.5q-192 0 -301 -134t-109 -378zM88 735q0 357 194.5 566.5t524.5 209.5t525 -210q98 -105 147 -247t49 -319q0 -354 -195.5 -565 t-525.5 -211t-524.5 210.5t-194.5 565.5zM1126 1923q-26 -125 -77 -184.5t-131 -59.5h-15h-12l-12 2l-36 9l-87 26l-35 7l-31 3q-31 0 -53 -18t-35 -59h-110q24 121 74 178t130 57q25 0 42 -4q22 -3 44 -10l93 -25l25 -6l30 -2q29 0 51 21t35 65h110z" />
<glyph unicode="&#x1e4d;" horiz-adv-x="1245" d="M1269 2030l-313 -370h-142l197 370h258zM367 545q0 -160 66 -250q34 -44 81.5 -66t108.5 -22q120 0 187 88t67 250q0 159 -66.5 247.5t-187.5 88.5q-123 0 -189.5 -87.5t-66.5 -248.5zM72 545q0 269 147 425t404 156q254 0 402.5 -156t148.5 -425q0 -272 -147.5 -427 t-403.5 -155q-255 0 -403 155t-148 427zM940 1538q-26 -125 -77 -184.5t-131 -59.5h-15h-12l-12 2l-36 9l-87 26l-35 7l-31 3q-31 0 -53 -18t-35 -59h-110q24 121 74 178t130 57q25 0 42 -4q22 -3 44 -10l93 -25l25 -6l30 -2q29 0 51 21t35 65h110z" />
<glyph unicode="&#x1e4e;" horiz-adv-x="1616" d="M1132 2045v246h226v-246h-226zM784 2045v246h226v-246h-226zM397 735q0 -243 108 -377.5t302 -134.5t304 135.5t110 376.5q0 243 -108.5 377.5t-305.5 134.5q-192 0 -301 -134t-109 -378zM88 735q0 357 194.5 566.5t524.5 209.5t525 -210q98 -105 147 -247t49 -319 q0 -354 -195.5 -565t-525.5 -211t-524.5 210.5t-194.5 565.5zM1126 1923q-26 -125 -77 -184.5t-131 -59.5h-15h-12l-12 2l-36 9l-87 26l-35 7l-31 3q-31 0 -53 -18t-35 -59h-110q24 121 74 178t130 57q25 0 42 -4q22 -3 44 -10l93 -25l25 -6l30 -2q29 0 51 21t35 65h110z " />
<glyph unicode="&#x1e4f;" horiz-adv-x="1245" d="M946 1660v246h226v-246h-226zM598 1660v246h226v-246h-226zM367 545q0 -160 66 -250q34 -44 81.5 -66t108.5 -22q120 0 187 88t67 250q0 159 -66.5 247.5t-187.5 88.5q-123 0 -189.5 -87.5t-66.5 -248.5zM72 545q0 269 147 425t404 156q254 0 402.5 -156t148.5 -425 q0 -272 -147.5 -427t-403.5 -155q-255 0 -403 155t-148 427zM940 1538q-26 -125 -77 -184.5t-131 -59.5h-15h-12l-12 2l-36 9l-87 26l-35 7l-31 3q-31 0 -53 -18t-35 -59h-110q24 121 74 178t130 57q25 0 42 -4q22 -3 44 -10l93 -25l25 -6l30 -2q29 0 51 21t35 65h110z" />
<glyph unicode="&#x1e50;" horiz-adv-x="1616" d="M423 2281h258l197 -370h-142zM520 1633v156h574v-156h-574zM397 735q0 -243 108 -377.5t302 -134.5t304 135.5t110 376.5q0 243 -108.5 377.5t-305.5 134.5q-192 0 -301 -134t-109 -378zM88 735q0 357 194.5 566.5t524.5 209.5t525 -210q98 -105 147 -247t49 -319 q0 -354 -195.5 -565t-525.5 -211t-524.5 210.5t-194.5 565.5z" />
<glyph unicode="&#x1e51;" horiz-adv-x="1245" d="M239 1896h258l197 -370h-142zM336 1248v156h574v-156h-574zM367 545q0 -160 66 -250q34 -44 81.5 -66t108.5 -22q120 0 187 88t67 250q0 159 -66.5 247.5t-187.5 88.5q-123 0 -189.5 -87.5t-66.5 -248.5zM72 545q0 269 147 425t404 156q254 0 402.5 -156t148.5 -425 q0 -272 -147.5 -427t-403.5 -155q-255 0 -403 155t-148 427z" />
<glyph unicode="&#x1e52;" horiz-adv-x="1616" d="M1191 2281l-313 -370h-142l197 370h258zM520 1633v156h574v-156h-574zM397 735q0 -243 108 -377.5t302 -134.5t304 135.5t110 376.5q0 243 -108.5 377.5t-305.5 134.5q-192 0 -301 -134t-109 -378zM88 735q0 357 194.5 566.5t524.5 209.5t525 -210q98 -105 147 -247 t49 -319q0 -354 -195.5 -565t-525.5 -211t-524.5 210.5t-194.5 565.5z" />
<glyph unicode="&#x1e53;" horiz-adv-x="1245" d="M1007 1896l-313 -370h-142l197 370h258zM336 1248v156h574v-156h-574zM367 545q0 -160 66 -250q34 -44 81.5 -66t108.5 -22q120 0 187 88t67 250q0 159 -66.5 247.5t-187.5 88.5q-123 0 -189.5 -87.5t-66.5 -248.5zM72 545q0 269 147 425t404 156q254 0 402.5 -156 t148.5 -425q0 -272 -147.5 -427t-403.5 -155q-255 0 -403 155t-148 427z" />
<glyph unicode="&#x1e54;" horiz-adv-x="1366" d="M863 2003l-313 -370h-142l197 370h258zM457 791h293q119 0 173 50.5t54 162.5q0 106 -53 159.5t-158 53.5h-309v-426zM455 524v-524h-303v1473h655q231 0 351 -120.5t120 -353.5q0 -226 -117.5 -350.5t-333.5 -124.5h-372z" />
<glyph unicode="&#x1e55;" horiz-adv-x="1255" d="M1117 1618l-313 -370h-142l197 370h258zM895 537q0 164 -62 250.5t-180 86.5q-116 0 -176.5 -86t-60.5 -251q0 -151 63.5 -236.5t179.5 -85.5q108 0 172 86.5t64 235.5zM133 -436v1523h277v-147q62 94 140.5 139t182.5 45q199 0 325 -158.5t126 -416.5q0 -262 -125 -424 t-322 -162q-55 0 -99 10t-88 34q-80 43 -134 128v-571h-283z" />
<glyph unicode="&#x1e56;" horiz-adv-x="1366" d="M361 1633v258h236v-258h-236zM457 791h293q119 0 173 50.5t54 162.5q0 106 -53 159.5t-158 53.5h-309v-426zM455 524v-524h-303v1473h655q231 0 351 -120.5t120 -353.5q0 -226 -117.5 -350.5t-333.5 -124.5h-372z" />
<glyph unicode="&#x1e57;" horiz-adv-x="1255" d="M615 1248v258h236v-258h-236zM895 537q0 164 -62 250.5t-180 86.5q-116 0 -176.5 -86t-60.5 -251q0 -151 63.5 -236.5t179.5 -85.5q108 0 172 86.5t64 235.5zM133 -436v1523h277v-147q62 94 140.5 139t182.5 45q199 0 325 -158.5t126 -416.5q0 -262 -125 -424t-322 -162 q-55 0 -99 10t-88 34q-80 43 -134 128v-571h-283z" />
<glyph unicode="&#x1e58;" horiz-adv-x="1462" d="M391 1633v258h236v-258h-236zM455 829h356q116 0 170.5 47t54.5 148q0 96 -53 145.5t-158 49.5h-370v-390zM152 0v1473h714q241 0 357 -102.5t116 -315.5q0 -137 -56 -226t-163 -122q96 -33 136 -104q20 -36 33.5 -91t13.5 -127l6 -174v-6q0 -67 14.5 -105.5t42.5 -54.5 v-45h-332q-13 27 -25 76l-8 52l-2 57l-4 155q0 35 -3 61.5t-11 51.5q-12 48 -38 72q-45 48 -167 48h-321v-573h-303z" />
<glyph unicode="&#x1e59;" horiz-adv-x="786" d="M323 1248v258h236v-258h-236zM127 0v1087h270v-186q55 109 132 163t182 54l26 -1l16 -1l1 -295h-97q-117 0 -178 -62t-61 -184v-575h-291z" />
<glyph unicode="&#x1e5a;" horiz-adv-x="1462" d="M641 -380v258h236v-258h-236zM455 829h356q116 0 170.5 47t54.5 148q0 96 -53 145.5t-158 49.5h-370v-390zM152 0v1473h714q241 0 357 -102.5t116 -315.5q0 -137 -56 -226t-163 -122q96 -33 136 -104q20 -36 33.5 -91t13.5 -127l6 -174v-6q0 -67 14.5 -105.5t42.5 -54.5 v-45h-332q-13 27 -25 76l-8 52l-2 57l-4 155q0 35 -3 61.5t-11 51.5q-12 48 -38 72q-45 48 -167 48h-321v-573h-303z" />
<glyph unicode="&#x1e5b;" horiz-adv-x="786" d="M155 -380v258h236v-258h-236zM127 0v1087h270v-186q55 109 132 163t182 54l26 -1l16 -1l1 -295h-97q-117 0 -178 -62t-61 -184v-575h-291z" />
<glyph unicode="&#x1e5c;" horiz-adv-x="1462" d="M222 1633v156h574v-156h-574zM641 -380v258h236v-258h-236zM455 829h356q116 0 170.5 47t54.5 148q0 96 -53 145.5t-158 49.5h-370v-390zM152 0v1473h714q241 0 357 -102.5t116 -315.5q0 -137 -56 -226t-163 -122q96 -33 136 -104q20 -36 33.5 -91t13.5 -127l6 -174v-6 q0 -67 14.5 -105.5t42.5 -54.5v-45h-332q-13 27 -25 76l-8 52l-2 57l-4 155q0 35 -3 61.5t-11 51.5q-12 48 -38 72q-45 48 -167 48h-321v-573h-303z" />
<glyph unicode="&#x1e5d;" horiz-adv-x="786" d="M424 1248v156h574v-156h-574zM155 -380v258h236v-258h-236zM127 0v1087h270v-186q55 109 132 163t182 54l26 -1l16 -1l1 -295h-97q-117 0 -178 -62t-61 -184v-575h-291z" />
<glyph unicode="&#x1e5e;" horiz-adv-x="1462" d="M472 -278v156h574v-156h-574zM455 829h356q116 0 170.5 47t54.5 148q0 96 -53 145.5t-158 49.5h-370v-390zM152 0v1473h714q241 0 357 -102.5t116 -315.5q0 -137 -56 -226t-163 -122q96 -33 136 -104q20 -36 33.5 -91t13.5 -127l6 -174v-6q0 -67 14.5 -105.5t42.5 -54.5 v-45h-332q-13 27 -25 76l-8 52l-2 57l-4 155q0 35 -3 61.5t-11 51.5q-12 48 -38 72q-45 48 -167 48h-321v-573h-303z" />
<glyph unicode="&#x1e5f;" horiz-adv-x="786" d="M-15 -278v156h574v-156h-574zM127 0v1087h270v-186q55 109 132 163t182 54l26 -1l16 -1l1 -295h-97q-117 0 -178 -62t-61 -184v-575h-291z" />
<glyph unicode="&#x1e60;" horiz-adv-x="1366" d="M556 1635v258h236v-258h-236zM84 455h299q16 -119 98.5 -178.5t237.5 -59.5q133 0 199.5 47t66.5 139q0 134 -385 222q-7 0 -9 2l-31 7q-209 45 -294 101q-76 48 -118 133.5t-42 200.5q0 213 147 328.5t421 115.5q259 0 403 -122q74 -62 114 -148q20 -44 30 -91.5 t10 -104.5h-291q0 50 -20.5 90.5t-61.5 72.5q-74 56 -211 56q-119 0 -183.5 -46.5t-64.5 -132.5q0 -117 251 -175l106 -25q168 -43 231 -64t115 -51q90 -49 135 -131t45 -199q0 -230 -155 -356.5t-437 -126.5q-275 0 -436 129q-79 65 -124.5 158t-45.5 209z" />
<glyph unicode="&#x1e61;" horiz-adv-x="1118" d="M427 1248v258h236v-258h-236zM66 354h290q0 -79 59 -121.5t169 -42.5q84 0 131 28.5t47 80.5q0 72 -174 111l-48 10l-65 16q-212 54 -294.5 128t-82.5 200q0 165 120.5 263.5t326.5 98.5q218 0 342 -97q65 -50 99 -118t34 -155h-283q0 66 -51.5 105.5t-138.5 39.5 q-83 0 -123.5 -25t-40.5 -75q0 -63 217 -115l79 -18q214 -51 295 -123t81 -203q0 -185 -130.5 -282t-379.5 -97q-225 0 -352 101t-127 278v12z" />
<glyph unicode="&#x1e62;" horiz-adv-x="1366" d="M572 -421v258h236v-258h-236zM84 455h299q16 -119 98.5 -178.5t237.5 -59.5q133 0 199.5 47t66.5 139q0 134 -385 222q-7 0 -9 2l-31 7q-209 45 -294 101q-76 48 -118 133.5t-42 200.5q0 213 147 328.5t421 115.5q259 0 403 -122q74 -62 114 -148q20 -44 30 -91.5 t10 -104.5h-291q0 50 -20.5 90.5t-61.5 72.5q-74 56 -211 56q-119 0 -183.5 -46.5t-64.5 -132.5q0 -117 251 -175l106 -25q168 -43 231 -64t115 -51q90 -49 135 -131t45 -199q0 -230 -155 -356.5t-437 -126.5q-275 0 -436 129q-79 65 -124.5 158t-45.5 209z" />
<glyph unicode="&#x1e63;" horiz-adv-x="1118" d="M427 -417v258h236v-258h-236zM66 354h290q0 -79 59 -121.5t169 -42.5q84 0 131 28.5t47 80.5q0 72 -174 111l-48 10l-65 16q-212 54 -294.5 128t-82.5 200q0 165 120.5 263.5t326.5 98.5q218 0 342 -97q65 -50 99 -118t34 -155h-283q0 66 -51.5 105.5t-138.5 39.5 q-83 0 -123.5 -25t-40.5 -75q0 -63 217 -115l79 -18q214 -51 295 -123t81 -203q0 -185 -130.5 -282t-379.5 -97q-225 0 -352 101t-127 278v12z" />
<glyph unicode="&#x1e64;" horiz-adv-x="1366" d="M811 2127v258h236v-258h-236zM1058 2005l-313 -370h-142l197 370h258zM84 455h299q16 -119 98.5 -178.5t237.5 -59.5q133 0 199.5 47t66.5 139q0 134 -385 222q-7 0 -9 2l-31 7q-209 45 -294 101q-76 48 -118 133.5t-42 200.5q0 213 147 328.5t421 115.5q259 0 403 -122 q74 -62 114 -148q20 -44 30 -91.5t10 -104.5h-291q0 50 -20.5 90.5t-61.5 72.5q-74 56 -211 56q-119 0 -183.5 -46.5t-64.5 -132.5q0 -117 251 -175l106 -25q168 -43 231 -64t115 -51q90 -49 135 -131t45 -199q0 -230 -155 -356.5t-437 -126.5q-275 0 -436 129 q-79 65 -124.5 158t-45.5 209z" />
<glyph unicode="&#x1e65;" horiz-adv-x="1118" d="M682 1740v258h236v-258h-236zM929 1618l-313 -370h-142l197 370h258zM66 354h290q0 -79 59 -121.5t169 -42.5q84 0 131 28.5t47 80.5q0 72 -174 111l-48 10l-65 16q-212 54 -294.5 128t-82.5 200q0 165 120.5 263.5t326.5 98.5q218 0 342 -97q65 -50 99 -118t34 -155 h-283q0 66 -51.5 105.5t-138.5 39.5q-83 0 -123.5 -25t-40.5 -75q0 -63 217 -115l79 -18q214 -51 295 -123t81 -203q0 -185 -130.5 -282t-379.5 -97q-225 0 -352 101t-127 278v12z" />
<glyph unicode="&#x1e66;" horiz-adv-x="1366" d="M566 2094v258h236v-258h-236zM84 455h299q16 -119 98.5 -178.5t237.5 -59.5q133 0 199.5 47t66.5 139q0 134 -385 222q-7 0 -9 2l-31 7q-209 45 -294 101q-76 48 -118 133.5t-42 200.5q0 213 147 328.5t421 115.5q259 0 403 -122q74 -62 114 -148q20 -44 30 -91.5 t10 -104.5h-291q0 50 -20.5 90.5t-61.5 72.5q-74 56 -211 56q-119 0 -183.5 -46.5t-64.5 -132.5q0 -117 251 -175l106 -25q168 -43 231 -64t115 -51q90 -49 135 -131t45 -199q0 -230 -155 -356.5t-437 -126.5q-275 0 -436 129q-79 65 -124.5 158t-45.5 209zM369 1972h139 l176 -219l174 219h141l-196 -370h-238z" />
<glyph unicode="&#x1e67;" horiz-adv-x="1118" d="M441 1709v258h236v-258h-236zM66 354h290q0 -79 59 -121.5t169 -42.5q84 0 131 28.5t47 80.5q0 72 -174 111l-48 10l-65 16q-212 54 -294.5 128t-82.5 200q0 165 120.5 263.5t326.5 98.5q218 0 342 -97q65 -50 99 -118t34 -155h-283q0 66 -51.5 105.5t-138.5 39.5 q-83 0 -123.5 -25t-40.5 -75q0 -63 217 -115l79 -18q214 -51 295 -123t81 -203q0 -185 -130.5 -282t-379.5 -97q-225 0 -352 101t-127 278v12zM244 1587h139l176 -219l174 219h141l-196 -370h-238z" />
<glyph unicode="&#x1e68;" horiz-adv-x="1366" d="M556 1635v258h236v-258h-236zM572 -421v258h236v-258h-236zM84 455h299q16 -119 98.5 -178.5t237.5 -59.5q133 0 199.5 47t66.5 139q0 134 -385 222q-7 0 -9 2l-31 7q-209 45 -294 101q-76 48 -118 133.5t-42 200.5q0 213 147 328.5t421 115.5q259 0 403 -122 q74 -62 114 -148q20 -44 30 -91.5t10 -104.5h-291q0 50 -20.5 90.5t-61.5 72.5q-74 56 -211 56q-119 0 -183.5 -46.5t-64.5 -132.5q0 -117 251 -175l106 -25q168 -43 231 -64t115 -51q90 -49 135 -131t45 -199q0 -230 -155 -356.5t-437 -126.5q-275 0 -436 129 q-79 65 -124.5 158t-45.5 209z" />
<glyph unicode="&#x1e69;" horiz-adv-x="1118" d="M427 1248v258h236v-258h-236zM427 -417v258h236v-258h-236zM66 354h290q0 -79 59 -121.5t169 -42.5q84 0 131 28.5t47 80.5q0 72 -174 111l-48 10l-65 16q-212 54 -294.5 128t-82.5 200q0 165 120.5 263.5t326.5 98.5q218 0 342 -97q65 -50 99 -118t34 -155h-283 q0 66 -51.5 105.5t-138.5 39.5q-83 0 -123.5 -25t-40.5 -75q0 -63 217 -115l79 -18q214 -51 295 -123t81 -203q0 -185 -130.5 -282t-379.5 -97q-225 0 -352 101t-127 278v12z" />
<glyph unicode="&#x1e6a;" horiz-adv-x="1217" d="M489 1633v258h236v-258h-236zM457 0v1210h-437v263h1174v-263h-434v-1210h-303z" />
<glyph unicode="&#x1e6b;" horiz-adv-x="651" d="M180 1506v258h236v-258h-236zM610 -8l-96 -3l-70 -3q-166 0 -228 63.5t-62 245.5v588h-144v204h144v297h288v-297h168v-204h-168v-602q0 -42 19 -57q21 -13 78 -13h71v-219z" />
<glyph unicode="&#x1e6c;" horiz-adv-x="1217" d="M491 -380v258h236v-258h-236zM457 0v1210h-437v263h1174v-263h-434v-1210h-303z" />
<glyph unicode="&#x1e6d;" horiz-adv-x="651" d="M326 -394v258h236v-258h-236zM610 -8l-96 -3l-70 -3q-166 0 -228 63.5t-62 245.5v588h-144v204h144v297h288v-297h168v-204h-168v-602q0 -42 19 -57q21 -13 78 -13h71v-219z" />
<glyph unicode="&#x1e6e;" horiz-adv-x="1217" d="M321 -278v156h574v-156h-574zM457 0v1210h-437v263h1174v-263h-434v-1210h-303z" />
<glyph unicode="&#x1e6f;" horiz-adv-x="651" d="M157 -292v156h574v-156h-574zM610 -8l-96 -3l-70 -3q-166 0 -228 63.5t-62 245.5v588h-144v204h144v297h288v-297h168v-204h-168v-602q0 -42 19 -57q21 -13 78 -13h71v-219z" />
<glyph unicode="&#x1e70;" horiz-adv-x="1217" d="M293 -492l196 370h238l196 -370h-141l-174 217l-176 -217h-139zM457 0v1210h-437v263h1174v-263h-434v-1210h-303z" />
<glyph unicode="&#x1e71;" horiz-adv-x="651" d="M129 -506l196 370h238l196 -370h-141l-174 217l-176 -217h-139zM610 -8l-96 -3l-70 -3q-166 0 -228 63.5t-62 245.5v588h-144v204h144v297h288v-297h168v-204h-168v-602q0 -42 19 -57q21 -13 78 -13h71v-219z" />
<glyph unicode="&#x1e72;" horiz-adv-x="1468" d="M796 -409v246h226v-246h-226zM448 -409v246h226v-246h-226zM143 1477h306v-924q0 -172 68 -250t216 -78q147 0 217 78t70 250v924h303v-957q0 -270 -151.5 -415.5t-436.5 -145.5q-284 0 -438 144t-154 417v957z" />
<glyph unicode="&#x1e73;" d="M542 -397v246h226v-246h-226zM194 -397v246h226v-246h-226zM1096 1087v-1087h-285v129q-59 -76 -143 -117t-187 -41q-177 0 -267.5 93.5t-90.5 281.5v741h291v-657q0 -114 39 -164.5t129 -50.5q103 0 163 62.5t60 166.5v643h291z" />
<glyph unicode="&#x1e74;" horiz-adv-x="1468" d="M1052 -163q-26 -125 -77 -184.5t-131 -59.5h-15h-12l-12 2l-36 9l-87 26l-35 7l-31 3q-31 0 -53 -18t-35 -59h-110q24 121 74 178t130 57q25 0 42 -4q22 -3 44 -10l93 -25l25 -6l30 -2q29 0 51 21t35 65h110zM143 1477h306v-924q0 -172 68 -250t216 -78q147 0 217 78 t70 250v924h303v-957q0 -270 -151.5 -415.5t-436.5 -145.5q-284 0 -438 144t-154 417v957z" />
<glyph unicode="&#x1e75;" d="M798 -151q-26 -125 -77 -184.5t-131 -59.5h-15h-12l-12 2l-36 9l-87 26l-35 7l-31 3q-31 0 -53 -18t-35 -59h-110q24 121 74 178t130 57q25 0 42 -4q22 -3 44 -10l93 -25l25 -6l30 -2q29 0 51 21t35 65h110zM1096 1087v-1087h-285v129q-59 -76 -143 -117t-187 -41 q-177 0 -267.5 93.5t-90.5 281.5v741h291v-657q0 -114 39 -164.5t129 -50.5q103 0 163 62.5t60 166.5v643h291z" />
<glyph unicode="&#x1e76;" horiz-adv-x="1468" d="M420 -533l196 370h238l196 -370h-141l-174 217l-176 -217h-139zM143 1477h306v-924q0 -172 68 -250t216 -78q147 0 217 78t70 250v924h303v-957q0 -270 -151.5 -415.5t-436.5 -145.5q-284 0 -438 144t-154 417v957z" />
<glyph unicode="&#x1e77;" d="M166 -521l196 370h238l196 -370h-141l-174 217l-176 -217h-139zM1096 1087v-1087h-285v129q-59 -76 -143 -117t-187 -41q-177 0 -267.5 93.5t-90.5 281.5v741h291v-657q0 -114 39 -164.5t129 -50.5q103 0 163 62.5t60 166.5v643h291z" />
<glyph unicode="&#x1e78;" horiz-adv-x="1468" d="M1379 2399l-313 -370h-142l197 370h258zM1050 1907q-26 -125 -77 -184.5t-131 -59.5h-15h-12l-12 2l-36 9l-87 26l-35 7l-31 3q-31 0 -53 -18t-35 -59h-110q24 121 74 178t130 57q25 0 42 -4q22 -3 44 -10l93 -25l25 -6l30 -2q29 0 51 21t35 65h110zM143 1477h306v-924 q0 -172 68 -250t216 -78q147 0 217 78t70 250v924h303v-957q0 -270 -151.5 -415.5t-436.5 -145.5q-284 0 -438 144t-154 417v957z" />
<glyph unicode="&#x1e79;" d="M1255 2014l-313 -370h-142l197 370h258zM927 1522q-26 -125 -77 -184.5t-131 -59.5h-15h-12l-12 2l-36 9l-87 26l-35 7l-31 3q-31 0 -53 -18t-35 -59h-110q24 121 74 178t130 57q25 0 42 -4q22 -3 44 -10l93 -25l25 -6l30 -2q29 0 51 21t35 65h110zM1096 1087v-1087h-285 v129q-59 -76 -143 -117t-187 -41q-177 0 -267.5 93.5t-90.5 281.5v741h291v-657q0 -114 39 -164.5t129 -50.5q103 0 163 62.5t60 166.5v643h291z" />
<glyph unicode="&#x1e7a;" horiz-adv-x="1468" d="M794 1911v246h226v-246h-226zM446 1911v246h226v-246h-226zM446 1633v156h574v-156h-574zM143 1477h306v-924q0 -172 68 -250t216 -78q147 0 217 78t70 250v924h303v-957q0 -270 -151.5 -415.5t-436.5 -145.5q-284 0 -438 144t-154 417v957z" />
<glyph unicode="&#x1e7b;" d="M671 1526v246h226v-246h-226zM323 1526v246h226v-246h-226zM323 1248v156h574v-156h-574zM1096 1087v-1087h-285v129q-59 -76 -143 -117t-187 -41q-177 0 -267.5 93.5t-90.5 281.5v741h291v-657q0 -114 39 -164.5t129 -50.5q103 0 163 62.5t60 166.5v643h291z" />
<glyph unicode="&#x1e7c;" horiz-adv-x="1280" d="M957 1907q-26 -125 -77 -184.5t-131 -59.5h-15h-12l-12 2l-36 9l-87 26l-35 7l-31 3q-31 0 -53 -18t-35 -59h-110q24 121 74 178t130 57q25 0 42 -4q22 -3 44 -10l93 -25l25 -6l30 -2q29 0 51 21t35 65h110zM498 0l-508 1473h336l313 -1102l319 1102h332l-502 -1473h-290 z" />
<glyph unicode="&#x1e7d;" horiz-adv-x="1085" d="M859 1522q-26 -125 -77 -184.5t-131 -59.5h-15h-12l-12 2l-36 9l-87 26l-35 7l-31 3q-31 0 -53 -18t-35 -59h-110q24 121 74 178t130 57q25 0 42 -4q22 -3 44 -10l93 -25l25 -6l30 -2q29 0 51 21t35 65h110zM395 0l-391 1087h322l223 -780l225 780h307l-389 -1087h-297z " />
<glyph unicode="&#x1e7e;" horiz-adv-x="1280" d="M525 -380v258h236v-258h-236zM498 0l-508 1473h336l313 -1102l319 1102h332l-502 -1473h-290z" />
<glyph unicode="&#x1e7f;" horiz-adv-x="1085" d="M425 -380v258h236v-258h-236zM395 0l-391 1087h322l223 -780l225 780h307l-389 -1087h-297z" />
<glyph unicode="&#x1e80;" horiz-adv-x="1913" d="M571 2003h258l197 -370h-142zM438 0l-422 1473h314l252 -1039l213 1039h323l213 -1039l252 1039h311l-421 -1473h-289l-228 1128l-229 -1128h-289z" />
<glyph unicode="&#x1e81;" horiz-adv-x="1567" d="M399 1618h258l197 -370h-142zM322 0l-308 1087h295l178 -753l150 753h297l158 -753l178 753h282l-305 -1087h-291l-174 778l-168 -778h-292z" />
<glyph unicode="&#x1e82;" horiz-adv-x="1913" d="M1339 2003l-313 -370h-142l197 370h258zM438 0l-422 1473h314l252 -1039l213 1039h323l213 -1039l252 1039h311l-421 -1473h-289l-228 1128l-229 -1128h-289z" />
<glyph unicode="&#x1e83;" horiz-adv-x="1567" d="M1167 1618l-313 -370h-142l197 370h258zM322 0l-308 1087h295l178 -753l150 753h297l158 -753l178 753h282l-305 -1087h-291l-174 778l-168 -778h-292z" />
<glyph unicode="&#x1e84;" horiz-adv-x="1913" d="M1016 1633v246h226v-246h-226zM668 1633v246h226v-246h-226zM438 0l-422 1473h314l252 -1039l213 1039h323l213 -1039l252 1039h311l-421 -1473h-289l-228 1128l-229 -1128h-289z" />
<glyph unicode="&#x1e85;" horiz-adv-x="1567" d="M844 1248v246h226v-246h-226zM496 1248v246h226v-246h-226zM322 0l-308 1087h295l178 -753l150 753h297l158 -753l178 753h282l-305 -1087h-291l-174 778l-168 -778h-292z" />
<glyph unicode="&#x1e86;" horiz-adv-x="1913" d="M837 1633v258h236v-258h-236zM438 0l-422 1473h314l252 -1039l213 1039h323l213 -1039l252 1039h311l-421 -1473h-289l-228 1128l-229 -1128h-289z" />
<glyph unicode="&#x1e87;" horiz-adv-x="1567" d="M665 1248v258h236v-258h-236zM322 0l-308 1087h295l178 -753l150 753h297l158 -753l178 753h282l-305 -1087h-291l-174 778l-168 -778h-292z" />
<glyph unicode="&#x1e88;" horiz-adv-x="1913" d="M837 -380v258h236v-258h-236zM438 0l-422 1473h314l252 -1039l213 1039h323l213 -1039l252 1039h311l-421 -1473h-289l-228 1128l-229 -1128h-289z" />
<glyph unicode="&#x1e89;" horiz-adv-x="1567" d="M667 -380v258h236v-258h-236zM322 0l-308 1087h295l178 -753l150 753h297l158 -753l178 753h282l-305 -1087h-291l-174 778l-168 -778h-292z" />
<glyph unicode="&#x1e8a;" horiz-adv-x="1282" d="M523 1633v258h236v-258h-236zM-10 0l463 752l-463 721h350l301 -515l299 515h352l-463 -719l463 -754h-350l-301 510l-301 -510h-350z" />
<glyph unicode="&#x1e8b;" horiz-adv-x="1057" d="M408 1248v258h236v-258h-236zM-8 0l366 555l-350 532h332l192 -327l191 327h321l-342 -528l363 -559h-340l-201 344l-198 -344h-334z" />
<glyph unicode="&#x1e8c;" horiz-adv-x="1282" d="M702 1633v246h226v-246h-226zM354 1633v246h226v-246h-226zM-10 0l463 752l-463 721h350l301 -515l299 515h352l-463 -719l463 -754h-350l-301 510l-301 -510h-350z" />
<glyph unicode="&#x1e8d;" horiz-adv-x="1057" d="M587 1248v246h226v-246h-226zM239 1248v246h226v-246h-226zM-8 0l366 555l-350 532h332l192 -327l191 327h321l-342 -528l363 -559h-340l-201 344l-198 -344h-334z" />
<glyph unicode="&#x1e8e;" horiz-adv-x="1274" d="M517 1633v258h236v-258h-236zM811 0h-303v549l-535 924h371l315 -635l291 635h346l-485 -924v-549z" />
<glyph unicode="&#x1e8f;" horiz-adv-x="1100" d="M433 1248v258h236v-258h-236zM170 -436v235l29 -3l39 -1q88 0 130 40.5t42 121.5l-2 15l-4 15l-392 1100h320l229 -784l223 784h306l-447 -1282q-49 -143 -126 -196q-38 -27 -92.5 -40t-131.5 -13h-21h-18l-19 2z" />
<glyph unicode="&#x1e90;" horiz-adv-x="1231" d="M315 1633l196 370h238l196 -370h-141l-174 217l-176 -217h-139zM37 0v256l801 950h-785v267h1153v-256l-803 -951h785v-266h-1151z" />
<glyph unicode="&#x1e91;" horiz-adv-x="1036" d="M209 1248l196 370h238l196 -370h-141l-174 217l-176 -217h-139zM35 0v223l596 633h-561v231h909v-237l-588 -608h608v-242h-964z" />
<glyph unicode="&#x1e92;" horiz-adv-x="1231" d="M495 -380v258h236v-258h-236zM37 0v256l801 950h-785v267h1153v-256l-803 -951h785v-266h-1151z" />
<glyph unicode="&#x1e93;" horiz-adv-x="1036" d="M399 -380v258h236v-258h-236zM35 0v223l596 633h-561v231h909v-237l-588 -608h608v-242h-964z" />
<glyph unicode="&#x1e94;" horiz-adv-x="1231" d="M325 -278v156h574v-156h-574zM37 0v256l801 950h-785v267h1153v-256l-803 -951h785v-266h-1151z" />
<glyph unicode="&#x1e95;" horiz-adv-x="1036" d="M230 -278v156h574v-156h-574zM35 0v223l596 633h-561v231h909v-237l-588 -608h608v-242h-964z" />
<glyph unicode="&#x1e96;" horiz-adv-x="1233" d="M331 -278v156h574v-156h-574zM133 0v1473h289v-506q59 74 140.5 111.5t182.5 37.5q93 0 172.5 -33t126.5 -94q31 -38 45.5 -94t14.5 -170v-20v-705h-289v569q0 201 -37 253t-133 52q-102 0 -162.5 -60.5t-60.5 -168.5v-645h-289z" />
<glyph unicode="&#x1e97;" horiz-adv-x="651" d="M359 1506v246h226v-246h-226zM11 1506v246h226v-246h-226zM610 -8l-96 -3l-70 -3q-166 0 -228 63.5t-62 245.5v588h-144v204h144v297h288v-297h168v-204h-168v-602q0 -42 19 -57q21 -13 78 -13h71v-219z" />
<glyph unicode="&#x1e98;" horiz-adv-x="1567" d="M660 1514q0 -53 34.5 -88t86.5 -35q49 0 87 36t38 87q0 48 -37 85.5t-88 37.5q-50 0 -85.5 -36.5t-35.5 -86.5zM517 1514q0 111 76.5 188.5t187.5 77.5q109 0 188.5 -77.5t79.5 -188.5t-77.5 -188.5t-190.5 -77.5q-111 0 -187.5 77.5t-76.5 188.5zM322 0l-308 1087h295 l178 -753l150 753h297l158 -753l178 753h282l-305 -1087h-291l-174 778l-168 -778h-292z" />
<glyph unicode="&#x1e99;" horiz-adv-x="1100" d="M428 1514q0 -53 34.5 -88t86.5 -35q49 0 87 36t38 87q0 48 -37 85.5t-88 37.5q-50 0 -85.5 -36.5t-35.5 -86.5zM285 1514q0 111 76.5 188.5t187.5 77.5q109 0 188.5 -77.5t79.5 -188.5t-77.5 -188.5t-190.5 -77.5q-111 0 -187.5 77.5t-76.5 188.5zM170 -436v235l29 -3 l39 -1q88 0 130 40.5t42 121.5l-2 15l-4 15l-392 1100h320l229 -784l223 784h306l-447 -1282q-49 -143 -126 -196q-38 -27 -92.5 -40t-131.5 -13h-21h-18l-19 2z" />
<glyph unicode="&#x1e9b;" horiz-adv-x="1118" d="M427 1248v258h236v-258h-236zM66 354h290q0 -79 59 -121.5t169 -42.5q84 0 131 28.5t47 80.5q0 72 -174 111l-48 10l-65 16q-212 54 -294.5 128t-82.5 200q0 165 120.5 263.5t326.5 98.5q218 0 342 -97q65 -50 99 -118t34 -155h-283q0 66 -51.5 105.5t-138.5 39.5 q-83 0 -123.5 -25t-40.5 -75q0 -63 217 -115l79 -18q214 -51 295 -123t81 -203q0 -185 -130.5 -282t-379.5 -97q-225 0 -352 101t-127 278v12z" />
<glyph unicode="&#x1ea0;" horiz-adv-x="1405" d="M585 -380v258h236v-258h-236zM700 1178l-204 -627h409zM524 1473h350l531 -1473h-318l-100 303h-571l-97 -303h-319z" />
<glyph unicode="&#x1ea1;" horiz-adv-x="1151" d="M281 -419v258h236v-258h-236zM750 135q-54 -82 -144 -128t-207 -46q-156 0 -242.5 90.5t-86.5 255.5q0 153 85 233.5t283 112.5l118 16q185 24 185 107q0 66 -41 94.5t-137 28.5q-88 0 -135 -35t-47 -100v-16h-272v20q0 164 117 261t327 97q228 0 349.5 -78.5 t121.5 -228.5v-618q0 -70 13 -101t48 -51v-49h-303q-12 22 -23 62l-6 30zM745 535q-63 -30 -164 -53l-95 -21q-77 -21 -107.5 -54.5t-30.5 -91.5q0 -60 39.5 -95.5t104.5 -35.5q115 0 184 66t69 182v103z" />
<glyph unicode="&#x1ea4;" horiz-adv-x="1405" d="M1086 2464l-313 -370h-142l197 370h258zM700 1178l-204 -627h409zM524 1473h350l531 -1473h-318l-100 303h-571l-97 -303h-319zM387 1602l196 370h238l196 -370h-141l-174 217l-176 -217h-139z" />
<glyph unicode="&#x1ea5;" horiz-adv-x="1151" d="M945 2079l-313 -370h-142l197 370h258zM750 135q-54 -82 -144 -128t-207 -46q-156 0 -242.5 90.5t-86.5 255.5q0 153 85 233.5t283 112.5l118 16q185 24 185 107q0 66 -41 94.5t-137 28.5q-88 0 -135 -35t-47 -100v-16h-272v20q0 164 117 261t327 97q228 0 349.5 -78.5 t121.5 -228.5v-618q0 -70 13 -101t48 -51v-49h-303q-12 22 -23 62l-6 30zM745 535q-63 -30 -164 -53l-95 -21q-77 -21 -107.5 -54.5t-30.5 -91.5q0 -60 39.5 -95.5t104.5 -35.5q115 0 184 66t69 182v103zM246 1217l196 370h238l196 -370h-141l-174 217l-176 -217h-139z" />
<glyph unicode="&#x1ea6;" horiz-adv-x="1405" d="M318 2464h258l197 -370h-142zM700 1178l-204 -627h409zM524 1473h350l531 -1473h-318l-100 303h-571l-97 -303h-319zM387 1602l196 370h238l196 -370h-141l-174 217l-176 -217h-139z" />
<glyph unicode="&#x1ea7;" horiz-adv-x="1151" d="M177 2079h258l197 -370h-142zM750 135q-54 -82 -144 -128t-207 -46q-156 0 -242.5 90.5t-86.5 255.5q0 153 85 233.5t283 112.5l118 16q185 24 185 107q0 66 -41 94.5t-137 28.5q-88 0 -135 -35t-47 -100v-16h-272v20q0 164 117 261t327 97q228 0 349.5 -78.5 t121.5 -228.5v-618q0 -70 13 -101t48 -51v-49h-303q-12 22 -23 62l-6 30zM745 535q-63 -30 -164 -53l-95 -21q-77 -21 -107.5 -54.5t-30.5 -91.5q0 -60 39.5 -95.5t104.5 -35.5q115 0 184 66t69 182v103zM246 1217l196 370h238l196 -370h-141l-174 217l-176 -217h-139z" />
<glyph unicode="&#x1eaa;" horiz-adv-x="1405" d="M1019 2368q-26 -125 -77 -184.5t-131 -59.5h-15h-12l-12 2l-36 9l-87 26l-35 7l-31 3q-31 0 -53 -18t-35 -59h-110q24 121 74 178t130 57q25 0 42 -4q22 -3 44 -10l93 -25l25 -6l30 -2q29 0 51 21t35 65h110zM700 1178l-204 -627h409zM524 1473h350l531 -1473h-318 l-100 303h-571l-97 -303h-319zM387 1602l196 370h238l196 -370h-141l-174 217l-176 -217h-139z" />
<glyph unicode="&#x1eab;" horiz-adv-x="1151" d="M878 1983q-26 -125 -77 -184.5t-131 -59.5h-15h-12l-12 2l-36 9l-87 26l-35 7l-31 3q-31 0 -53 -18t-35 -59h-110q24 121 74 178t130 57q25 0 42 -4q22 -3 44 -10l93 -25l25 -6l30 -2q29 0 51 21t35 65h110zM750 135q-54 -82 -144 -128t-207 -46q-156 0 -242.5 90.5 t-86.5 255.5q0 153 85 233.5t283 112.5l118 16q185 24 185 107q0 66 -41 94.5t-137 28.5q-88 0 -135 -35t-47 -100v-16h-272v20q0 164 117 261t327 97q228 0 349.5 -78.5t121.5 -228.5v-618q0 -70 13 -101t48 -51v-49h-303q-12 22 -23 62l-6 30zM745 535q-63 -30 -164 -53 l-95 -21q-77 -21 -107.5 -54.5t-30.5 -91.5q0 -60 39.5 -95.5t104.5 -35.5q115 0 184 66t69 182v103zM246 1217l196 370h238l196 -370h-141l-174 217l-176 -217h-139z" />
<glyph unicode="&#x1eac;" horiz-adv-x="1405" d="M384 1633l196 370h238l196 -370h-141l-174 217l-176 -217h-139zM585 -380v258h236v-258h-236zM700 1178l-204 -627h409zM524 1473h350l531 -1473h-318l-100 303h-571l-97 -303h-319z" />
<glyph unicode="&#x1ead;" horiz-adv-x="1151" d="M238 1248l196 370h238l196 -370h-141l-174 217l-176 -217h-139zM281 -419v258h236v-258h-236zM750 135q-54 -82 -144 -128t-207 -46q-156 0 -242.5 90.5t-86.5 255.5q0 153 85 233.5t283 112.5l118 16q185 24 185 107q0 66 -41 94.5t-137 28.5q-88 0 -135 -35t-47 -100 v-16h-272v20q0 164 117 261t327 97q228 0 349.5 -78.5t121.5 -228.5v-618q0 -70 13 -101t48 -51v-49h-303q-12 22 -23 62l-6 30zM745 535q-63 -30 -164 -53l-95 -21q-77 -21 -107.5 -54.5t-30.5 -91.5q0 -60 39.5 -95.5t104.5 -35.5q115 0 184 66t69 182v103z" />
<glyph unicode="&#x1eae;" horiz-adv-x="1405" d="M1083 2428l-313 -370h-142l197 370h258zM391 1936h123q0 -35 12.5 -63.5t37.5 -48.5q46 -35 136 -35t132.5 34.5t51.5 112.5h123q0 -76 -21.5 -132t-63.5 -98q-76 -73 -222 -73q-148 0 -223 74q-39 39 -63 96q-11 27 -17 60t-6 73zM700 1178l-204 -627h409zM524 1473h350 l531 -1473h-318l-100 303h-571l-97 -303h-319z" />
<glyph unicode="&#x1eaf;" horiz-adv-x="1151" d="M937 2043l-313 -370h-142l197 370h258zM245 1551h123q0 -35 12.5 -63.5t37.5 -48.5q46 -35 136 -35t132.5 34.5t51.5 112.5h123q0 -76 -21.5 -132t-63.5 -98q-76 -73 -222 -73q-148 0 -223 74q-39 39 -63 96q-11 27 -17 60t-6 73zM750 135q-54 -82 -144 -128t-207 -46 q-156 0 -242.5 90.5t-86.5 255.5q0 153 85 233.5t283 112.5l118 16q185 24 185 107q0 66 -41 94.5t-137 28.5q-88 0 -135 -35t-47 -100v-16h-272v20q0 164 117 261t327 97q228 0 349.5 -78.5t121.5 -228.5v-618q0 -70 13 -101t48 -51v-49h-303q-12 22 -23 62l-6 30zM745 535 q-63 -30 -164 -53l-95 -21q-77 -21 -107.5 -54.5t-30.5 -91.5q0 -60 39.5 -95.5t104.5 -35.5q115 0 184 66t69 182v103z" />
<glyph unicode="&#x1eb0;" horiz-adv-x="1405" d="M315 2428h258l197 -370h-142zM391 1936h123q0 -35 12.5 -63.5t37.5 -48.5q46 -35 136 -35t132.5 34.5t51.5 112.5h123q0 -76 -21.5 -132t-63.5 -98q-76 -73 -222 -73q-148 0 -223 74q-39 39 -63 96q-11 27 -17 60t-6 73zM700 1178l-204 -627h409zM524 1473h350l531 -1473 h-318l-100 303h-571l-97 -303h-319z" />
<glyph unicode="&#x1eb1;" horiz-adv-x="1151" d="M169 2043h258l197 -370h-142zM245 1551h123q0 -35 12.5 -63.5t37.5 -48.5q46 -35 136 -35t132.5 34.5t51.5 112.5h123q0 -76 -21.5 -132t-63.5 -98q-76 -73 -222 -73q-148 0 -223 74q-39 39 -63 96q-11 27 -17 60t-6 73zM750 135q-54 -82 -144 -128t-207 -46 q-156 0 -242.5 90.5t-86.5 255.5q0 153 85 233.5t283 112.5l118 16q185 24 185 107q0 66 -41 94.5t-137 28.5q-88 0 -135 -35t-47 -100v-16h-272v20q0 164 117 261t327 97q228 0 349.5 -78.5t121.5 -228.5v-618q0 -70 13 -101t48 -51v-49h-303q-12 22 -23 62l-6 30zM745 535 q-63 -30 -164 -53l-95 -21q-77 -21 -107.5 -54.5t-30.5 -91.5q0 -60 39.5 -95.5t104.5 -35.5q115 0 184 66t69 182v103z" />
<glyph unicode="&#x1eb4;" horiz-adv-x="1405" d="M1016 2332q-26 -125 -77 -184.5t-131 -59.5h-15h-12l-12 2l-36 9l-87 26l-35 7l-31 3q-31 0 -53 -18t-35 -59h-110q24 121 74 178t130 57q25 0 42 -4q22 -3 44 -10l93 -25l25 -6l30 -2q29 0 51 21t35 65h110zM391 1936h123q0 -35 12.5 -63.5t37.5 -48.5q46 -35 136 -35 t132.5 34.5t51.5 112.5h123q0 -76 -21.5 -132t-63.5 -98q-76 -73 -222 -73q-148 0 -223 74q-39 39 -63 96q-11 27 -17 60t-6 73zM700 1178l-204 -627h409zM524 1473h350l531 -1473h-318l-100 303h-571l-97 -303h-319z" />
<glyph unicode="&#x1eb5;" horiz-adv-x="1151" d="M870 1947q-26 -125 -77 -184.5t-131 -59.5h-15h-12l-12 2l-36 9l-87 26l-35 7l-31 3q-31 0 -53 -18t-35 -59h-110q24 121 74 178t130 57q25 0 42 -4q22 -3 44 -10l93 -25l25 -6l30 -2q29 0 51 21t35 65h110zM245 1551h123q0 -35 12.5 -63.5t37.5 -48.5q46 -35 136 -35 t132.5 34.5t51.5 112.5h123q0 -76 -21.5 -132t-63.5 -98q-76 -73 -222 -73q-148 0 -223 74q-39 39 -63 96q-11 27 -17 60t-6 73zM750 135q-54 -82 -144 -128t-207 -46q-156 0 -242.5 90.5t-86.5 255.5q0 153 85 233.5t283 112.5l118 16q185 24 185 107q0 66 -41 94.5 t-137 28.5q-88 0 -135 -35t-47 -100v-16h-272v20q0 164 117 261t327 97q228 0 349.5 -78.5t121.5 -228.5v-618q0 -70 13 -101t48 -51v-49h-303q-12 22 -23 62l-6 30zM745 535q-63 -30 -164 -53l-95 -21q-77 -21 -107.5 -54.5t-30.5 -91.5q0 -60 39.5 -95.5t104.5 -35.5 q115 0 184 66t69 182v103z" />
<glyph unicode="&#x1eb6;" horiz-adv-x="1405" d="M391 1936h123q0 -35 12.5 -63.5t37.5 -48.5q46 -35 136 -35t132.5 34.5t51.5 112.5h123q0 -76 -21.5 -132t-63.5 -98q-76 -73 -222 -73q-148 0 -223 74q-39 39 -63 96q-11 27 -17 60t-6 73zM585 -380v258h236v-258h-236zM700 1178l-204 -627h409zM524 1473h350l531 -1473 h-318l-100 303h-571l-97 -303h-319z" />
<glyph unicode="&#x1eb7;" horiz-adv-x="1151" d="M245 1551h123q0 -35 12.5 -63.5t37.5 -48.5q46 -35 136 -35t132.5 34.5t51.5 112.5h123q0 -76 -21.5 -132t-63.5 -98q-76 -73 -222 -73q-148 0 -223 74q-39 39 -63 96q-11 27 -17 60t-6 73zM281 -419v258h236v-258h-236zM750 135q-54 -82 -144 -128t-207 -46 q-156 0 -242.5 90.5t-86.5 255.5q0 153 85 233.5t283 112.5l118 16q185 24 185 107q0 66 -41 94.5t-137 28.5q-88 0 -135 -35t-47 -100v-16h-272v20q0 164 117 261t327 97q228 0 349.5 -78.5t121.5 -228.5v-618q0 -70 13 -101t48 -51v-49h-303q-12 22 -23 62l-6 30zM745 535 q-63 -30 -164 -53l-95 -21q-77 -21 -107.5 -54.5t-30.5 -91.5q0 -60 39.5 -95.5t104.5 -35.5q115 0 184 66t69 182v103z" />
<glyph unicode="&#x1eb8;" horiz-adv-x="1337" d="M587 -380v258h236v-258h-236zM152 0v1473h1069v-256h-770v-314h704v-252h-704v-379h806v-272h-1105z" />
<glyph unicode="&#x1eb9;" horiz-adv-x="1167" d="M466 -417v258h236v-258h-236zM797 330h290q-43 -170 -177 -268.5t-326 -98.5q-234 0 -373 158.5t-139 429.5q0 267 136 421t372 154q249 0 385.5 -151.5t136.5 -431.5l-1 -47v-12q0 -7 -2 -17h-726q0 -63 15 -110t47 -83q57 -65 163 -65q78 0 124.5 29.5t74.5 91.5z M373 658h428q0 105 -57 165t-158 60q-95 0 -150 -58q-28 -29 -45.5 -72t-17.5 -95z" />
<glyph unicode="&#x1ebc;" horiz-adv-x="1337" d="M1003 1907q-26 -125 -77 -184.5t-131 -59.5h-15h-12l-12 2l-36 9l-87 26l-35 7l-31 3q-31 0 -53 -18t-35 -59h-110q24 121 74 178t130 57q25 0 42 -4q22 -3 44 -10l93 -25l25 -6l30 -2q29 0 51 21t35 65h110zM152 0v1473h1069v-256h-770v-314h704v-252h-704v-379h806 v-272h-1105z" />
<glyph unicode="&#x1ebd;" horiz-adv-x="1167" d="M897 1522q-26 -125 -77 -184.5t-131 -59.5h-15h-12l-12 2l-36 9l-87 26l-35 7l-31 3q-31 0 -53 -18t-35 -59h-110q24 121 74 178t130 57q25 0 42 -4q22 -3 44 -10l93 -25l25 -6l30 -2q29 0 51 21t35 65h110zM797 330h290q-43 -170 -177 -268.5t-326 -98.5 q-234 0 -373 158.5t-139 429.5q0 267 136 421t372 154q249 0 385.5 -151.5t136.5 -431.5l-1 -47v-12q0 -7 -2 -17h-726q0 -63 15 -110t47 -83q57 -65 163 -65q78 0 124.5 29.5t74.5 91.5zM373 658h428q0 105 -57 165t-158 60q-95 0 -150 -58q-28 -29 -45.5 -72t-17.5 -95z " />
<glyph unicode="&#x1ebe;" horiz-adv-x="1337" d="M1072 2464l-313 -370h-142l197 370h258zM152 0v1473h1069v-256h-770v-314h704v-252h-704v-379h806v-272h-1105zM373 1602l196 370h238l196 -370h-141l-174 217l-176 -217h-139z" />
<glyph unicode="&#x1ebf;" horiz-adv-x="1167" d="M968 2079l-313 -370h-142l197 370h258zM797 330h290q-43 -170 -177 -268.5t-326 -98.5q-234 0 -373 158.5t-139 429.5q0 267 136 421t372 154q249 0 385.5 -151.5t136.5 -431.5l-1 -47v-12q0 -7 -2 -17h-726q0 -63 15 -110t47 -83q57 -65 163 -65q78 0 124.5 29.5 t74.5 91.5zM373 658h428q0 105 -57 165t-158 60q-95 0 -150 -58q-28 -29 -45.5 -72t-17.5 -95zM269 1217l196 370h238l196 -370h-141l-174 217l-176 -217h-139z" />
<glyph unicode="&#x1ec0;" horiz-adv-x="1337" d="M304 2464h258l197 -370h-142zM152 0v1473h1069v-256h-770v-314h704v-252h-704v-379h806v-272h-1105zM373 1602l196 370h238l196 -370h-141l-174 217l-176 -217h-139z" />
<glyph unicode="&#x1ec1;" horiz-adv-x="1167" d="M200 2079h258l197 -370h-142zM797 330h290q-43 -170 -177 -268.5t-326 -98.5q-234 0 -373 158.5t-139 429.5q0 267 136 421t372 154q249 0 385.5 -151.5t136.5 -431.5l-1 -47v-12q0 -7 -2 -17h-726q0 -63 15 -110t47 -83q57 -65 163 -65q78 0 124.5 29.5t74.5 91.5z M373 658h428q0 105 -57 165t-158 60q-95 0 -150 -58q-28 -29 -45.5 -72t-17.5 -95zM269 1217l196 370h238l196 -370h-141l-174 217l-176 -217h-139z" />
<glyph unicode="&#x1ec4;" horiz-adv-x="1337" d="M1005 2368q-26 -125 -77 -184.5t-131 -59.5h-15h-12l-12 2l-36 9l-87 26l-35 7l-31 3q-31 0 -53 -18t-35 -59h-110q24 121 74 178t130 57q25 0 42 -4q22 -3 44 -10l93 -25l25 -6l30 -2q29 0 51 21t35 65h110zM152 0v1473h1069v-256h-770v-314h704v-252h-704v-379h806 v-272h-1105zM373 1602l196 370h238l196 -370h-141l-174 217l-176 -217h-139z" />
<glyph unicode="&#x1ec5;" horiz-adv-x="1167" d="M901 1983q-26 -125 -77 -184.5t-131 -59.5h-15h-12l-12 2l-36 9l-87 26l-35 7l-31 3q-31 0 -53 -18t-35 -59h-110q24 121 74 178t130 57q25 0 42 -4q22 -3 44 -10l93 -25l25 -6l30 -2q29 0 51 21t35 65h110zM797 330h290q-43 -170 -177 -268.5t-326 -98.5 q-234 0 -373 158.5t-139 429.5q0 267 136 421t372 154q249 0 385.5 -151.5t136.5 -431.5l-1 -47v-12q0 -7 -2 -17h-726q0 -63 15 -110t47 -83q57 -65 163 -65q78 0 124.5 29.5t74.5 91.5zM373 658h428q0 105 -57 165t-158 60q-95 0 -150 -58q-28 -29 -45.5 -72t-17.5 -95z M269 1217l196 370h238l196 -370h-141l-174 217l-176 -217h-139z" />
<glyph unicode="&#x1ec6;" horiz-adv-x="1337" d="M371 1633l196 370h238l196 -370h-141l-174 217l-176 -217h-139zM587 -380v258h236v-258h-236zM152 0v1473h1069v-256h-770v-314h704v-252h-704v-379h806v-272h-1105z" />
<glyph unicode="&#x1ec7;" horiz-adv-x="1167" d="M265 1248l196 370h238l196 -370h-141l-174 217l-176 -217h-139zM466 -417v258h236v-258h-236zM797 330h290q-43 -170 -177 -268.5t-326 -98.5q-234 0 -373 158.5t-139 429.5q0 267 136 421t372 154q249 0 385.5 -151.5t136.5 -431.5l-1 -47v-12q0 -7 -2 -17h-726 q0 -63 15 -110t47 -83q57 -65 163 -65q78 0 124.5 29.5t74.5 91.5zM373 658h428q0 105 -57 165t-158 60q-95 0 -150 -58q-28 -29 -45.5 -72t-17.5 -95z" />
<glyph unicode="&#x1eca;" horiz-adv-x="629" d="M195 -380v258h236v-258h-236zM162 0v1473h303v-1473h-303z" />
<glyph unicode="&#x1ecb;" horiz-adv-x="557" d="M161 -380v258h236v-258h-236zM133 1208v265h291v-265h-291zM133 0v1087h291v-1087h-291z" />
<glyph unicode="&#x1ecc;" horiz-adv-x="1616" d="M689 -421v258h236v-258h-236zM397 735q0 -243 108 -377.5t302 -134.5t304 135.5t110 376.5q0 243 -108.5 377.5t-305.5 134.5q-192 0 -301 -134t-109 -378zM88 735q0 357 194.5 566.5t524.5 209.5t525 -210q98 -105 147 -247t49 -319q0 -354 -195.5 -565t-525.5 -211 t-524.5 210.5t-194.5 565.5z" />
<glyph unicode="&#x1ecd;" horiz-adv-x="1245" d="M505 -417v258h236v-258h-236zM367 545q0 -160 66 -250q34 -44 81.5 -66t108.5 -22q120 0 187 88t67 250q0 159 -66.5 247.5t-187.5 88.5q-123 0 -189.5 -87.5t-66.5 -248.5zM72 545q0 269 147 425t404 156q254 0 402.5 -156t148.5 -425q0 -272 -147.5 -427t-403.5 -155 q-255 0 -403 155t-148 427z" />
<glyph unicode="&#x1ed0;" horiz-adv-x="1616" d="M1193 2464l-313 -370h-142l197 370h258zM397 735q0 -243 108 -377.5t302 -134.5t304 135.5t110 376.5q0 243 -108.5 377.5t-305.5 134.5q-192 0 -301 -134t-109 -378zM88 735q0 357 194.5 566.5t524.5 209.5t525 -210q98 -105 147 -247t49 -319q0 -354 -195.5 -565 t-525.5 -211t-524.5 210.5t-194.5 565.5zM494 1602l196 370h238l196 -370h-141l-174 217l-176 -217h-139z" />
<glyph unicode="&#x1ed1;" horiz-adv-x="1245" d="M1007 2079l-313 -370h-142l197 370h258zM367 545q0 -160 66 -250q34 -44 81.5 -66t108.5 -22q120 0 187 88t67 250q0 159 -66.5 247.5t-187.5 88.5q-123 0 -189.5 -87.5t-66.5 -248.5zM72 545q0 269 147 425t404 156q254 0 402.5 -156t148.5 -425q0 -272 -147.5 -427 t-403.5 -155q-255 0 -403 155t-148 427zM308 1217l196 370h238l196 -370h-141l-174 217l-176 -217h-139z" />
<glyph unicode="&#x1ed2;" horiz-adv-x="1616" d="M425 2464h258l197 -370h-142zM397 735q0 -243 108 -377.5t302 -134.5t304 135.5t110 376.5q0 243 -108.5 377.5t-305.5 134.5q-192 0 -301 -134t-109 -378zM88 735q0 357 194.5 566.5t524.5 209.5t525 -210q98 -105 147 -247t49 -319q0 -354 -195.5 -565t-525.5 -211 t-524.5 210.5t-194.5 565.5zM494 1602l196 370h238l196 -370h-141l-174 217l-176 -217h-139z" />
<glyph unicode="&#x1ed3;" horiz-adv-x="1245" d="M239 2079h258l197 -370h-142zM367 545q0 -160 66 -250q34 -44 81.5 -66t108.5 -22q120 0 187 88t67 250q0 159 -66.5 247.5t-187.5 88.5q-123 0 -189.5 -87.5t-66.5 -248.5zM72 545q0 269 147 425t404 156q254 0 402.5 -156t148.5 -425q0 -272 -147.5 -427t-403.5 -155 q-255 0 -403 155t-148 427zM308 1217l196 370h238l196 -370h-141l-174 217l-176 -217h-139z" />
<glyph unicode="&#x1ed6;" horiz-adv-x="1616" d="M1126 2368q-26 -125 -77 -184.5t-131 -59.5h-15h-12l-12 2l-36 9l-87 26l-35 7l-31 3q-31 0 -53 -18t-35 -59h-110q24 121 74 178t130 57q25 0 42 -4q22 -3 44 -10l93 -25l25 -6l30 -2q29 0 51 21t35 65h110zM397 735q0 -243 108 -377.5t302 -134.5t304 135.5t110 376.5 q0 243 -108.5 377.5t-305.5 134.5q-192 0 -301 -134t-109 -378zM88 735q0 357 194.5 566.5t524.5 209.5t525 -210q98 -105 147 -247t49 -319q0 -354 -195.5 -565t-525.5 -211t-524.5 210.5t-194.5 565.5zM494 1602l196 370h238l196 -370h-141l-174 217l-176 -217h-139z" />
<glyph unicode="&#x1ed7;" horiz-adv-x="1245" d="M940 1983q-26 -125 -77 -184.5t-131 -59.5h-15h-12l-12 2l-36 9l-87 26l-35 7l-31 3q-31 0 -53 -18t-35 -59h-110q24 121 74 178t130 57q25 0 42 -4q22 -3 44 -10l93 -25l25 -6l30 -2q29 0 51 21t35 65h110zM367 545q0 -160 66 -250q34 -44 81.5 -66t108.5 -22 q120 0 187 88t67 250q0 159 -66.5 247.5t-187.5 88.5q-123 0 -189.5 -87.5t-66.5 -248.5zM72 545q0 269 147 425t404 156q254 0 402.5 -156t148.5 -425q0 -272 -147.5 -427t-403.5 -155q-255 0 -403 155t-148 427zM308 1217l196 370h238l196 -370h-141l-174 217l-176 -217 h-139z" />
<glyph unicode="&#x1ed8;" horiz-adv-x="1616" d="M492 1633l196 370h238l196 -370h-141l-174 217l-176 -217h-139zM689 -421v258h236v-258h-236zM397 735q0 -243 108 -377.5t302 -134.5t304 135.5t110 376.5q0 243 -108.5 377.5t-305.5 134.5q-192 0 -301 -134t-109 -378zM88 735q0 357 194.5 566.5t524.5 209.5t525 -210 q98 -105 147 -247t49 -319q0 -354 -195.5 -565t-525.5 -211t-524.5 210.5t-194.5 565.5z" />
<glyph unicode="&#x1ed9;" horiz-adv-x="1245" d="M308 1248l196 370h238l196 -370h-141l-174 217l-176 -217h-139zM505 -417v258h236v-258h-236zM367 545q0 -160 66 -250q34 -44 81.5 -66t108.5 -22q120 0 187 88t67 250q0 159 -66.5 247.5t-187.5 88.5q-123 0 -189.5 -87.5t-66.5 -248.5zM72 545q0 269 147 425t404 156 q254 0 402.5 -156t148.5 -425q0 -272 -147.5 -427t-403.5 -155q-255 0 -403 155t-148 427z" />
<glyph unicode="&#x1eda;" horiz-adv-x="1616" d="M1373 2003l-313 -370h-142l197 370h258zM868 864v117q84 24 124 74q20 24 30 57t10 73v25h-164v301h303v-289q0 -151 -75.5 -240.5t-227.5 -117.5zM397 735q0 -243 108 -377.5t302 -134.5t304 135.5t110 376.5q0 243 -108.5 377.5t-305.5 134.5q-192 0 -301 -134 t-109 -378zM88 735q0 357 194.5 566.5t524.5 209.5t525 -210q98 -105 147 -247t49 -319q0 -354 -195.5 -565t-525.5 -211t-524.5 210.5t-194.5 565.5z" />
<glyph unicode="&#x1edb;" horiz-adv-x="1245" d="M1189 1618l-313 -370h-142l197 370h258zM684 479v117q84 24 124 74q20 24 30 57t10 73v25h-164v301h303v-289q0 -151 -75.5 -240.5t-227.5 -117.5zM367 545q0 -160 66 -250q34 -44 81.5 -66t108.5 -22q120 0 187 88t67 250q0 159 -66.5 247.5t-187.5 88.5 q-123 0 -189.5 -87.5t-66.5 -248.5zM72 545q0 269 147 425t404 156q254 0 402.5 -156t148.5 -425q0 -272 -147.5 -427t-403.5 -155q-255 0 -403 155t-148 427z" />
<glyph unicode="&#x1edc;" horiz-adv-x="1616" d="M605 2003h258l197 -370h-142zM868 864v117q84 24 124 74q20 24 30 57t10 73v25h-164v301h303v-289q0 -151 -75.5 -240.5t-227.5 -117.5zM397 735q0 -243 108 -377.5t302 -134.5t304 135.5t110 376.5q0 243 -108.5 377.5t-305.5 134.5q-192 0 -301 -134t-109 -378zM88 735 q0 357 194.5 566.5t524.5 209.5t525 -210q98 -105 147 -247t49 -319q0 -354 -195.5 -565t-525.5 -211t-524.5 210.5t-194.5 565.5z" />
<glyph unicode="&#x1edd;" horiz-adv-x="1245" d="M421 1618h258l197 -370h-142zM684 479v117q84 24 124 74q20 24 30 57t10 73v25h-164v301h303v-289q0 -151 -75.5 -240.5t-227.5 -117.5zM367 545q0 -160 66 -250q34 -44 81.5 -66t108.5 -22q120 0 187 88t67 250q0 159 -66.5 247.5t-187.5 88.5q-123 0 -189.5 -87.5 t-66.5 -248.5zM72 545q0 269 147 425t404 156q254 0 402.5 -156t148.5 -425q0 -272 -147.5 -427t-403.5 -155q-255 0 -403 155t-148 427z" />
<glyph unicode="&#x1ee0;" horiz-adv-x="1616" d="M1306 1907q-26 -125 -77 -184.5t-131 -59.5h-15h-12l-12 2l-36 9l-87 26l-35 7l-31 3q-31 0 -53 -18t-35 -59h-110q24 121 74 178t130 57q25 0 42 -4q22 -3 44 -10l93 -25l25 -6l30 -2q29 0 51 21t35 65h110zM868 864v117q84 24 124 74q20 24 30 57t10 73v25h-164v301 h303v-289q0 -151 -75.5 -240.5t-227.5 -117.5zM397 735q0 -243 108 -377.5t302 -134.5t304 135.5t110 376.5q0 243 -108.5 377.5t-305.5 134.5q-192 0 -301 -134t-109 -378zM88 735q0 357 194.5 566.5t524.5 209.5t525 -210q98 -105 147 -247t49 -319q0 -354 -195.5 -565 t-525.5 -211t-524.5 210.5t-194.5 565.5z" />
<glyph unicode="&#x1ee1;" horiz-adv-x="1245" d="M1122 1522q-26 -125 -77 -184.5t-131 -59.5h-15h-12l-12 2l-36 9l-87 26l-35 7l-31 3q-31 0 -53 -18t-35 -59h-110q24 121 74 178t130 57q25 0 42 -4q22 -3 44 -10l93 -25l25 -6l30 -2q29 0 51 21t35 65h110zM684 479v117q84 24 124 74q20 24 30 57t10 73v25h-164v301 h303v-289q0 -151 -75.5 -240.5t-227.5 -117.5zM367 545q0 -160 66 -250q34 -44 81.5 -66t108.5 -22q120 0 187 88t67 250q0 159 -66.5 247.5t-187.5 88.5q-123 0 -189.5 -87.5t-66.5 -248.5zM72 545q0 269 147 425t404 156q254 0 402.5 -156t148.5 -425q0 -272 -147.5 -427 t-403.5 -155q-255 0 -403 155t-148 427z" />
<glyph unicode="&#x1ee2;" horiz-adv-x="1616" d="M689 -421v258h236v-258h-236zM868 864v117q84 24 124 74q20 24 30 57t10 73v25h-164v301h303v-289q0 -151 -75.5 -240.5t-227.5 -117.5zM397 735q0 -243 108 -377.5t302 -134.5t304 135.5t110 376.5q0 243 -108.5 377.5t-305.5 134.5q-192 0 -301 -134t-109 -378zM88 735 q0 357 194.5 566.5t524.5 209.5t525 -210q98 -105 147 -247t49 -319q0 -354 -195.5 -565t-525.5 -211t-524.5 210.5t-194.5 565.5z" />
<glyph unicode="&#x1ee3;" horiz-adv-x="1245" d="M505 -417v258h236v-258h-236zM684 479v117q84 24 124 74q20 24 30 57t10 73v25h-164v301h303v-289q0 -151 -75.5 -240.5t-227.5 -117.5zM367 545q0 -160 66 -250q34 -44 81.5 -66t108.5 -22q120 0 187 88t67 250q0 159 -66.5 247.5t-187.5 88.5q-123 0 -189.5 -87.5 t-66.5 -248.5zM72 545q0 269 147 425t404 156q254 0 402.5 -156t148.5 -425q0 -272 -147.5 -427t-403.5 -155q-255 0 -403 155t-148 427z" />
<glyph unicode="&#x1ee4;" horiz-adv-x="1468" d="M617 -421v258h236v-258h-236zM143 1477h306v-924q0 -172 68 -250t216 -78q147 0 217 78t70 250v924h303v-957q0 -270 -151.5 -415.5t-436.5 -145.5q-284 0 -438 144t-154 417v957z" />
<glyph unicode="&#x1ee5;" d="M363 -409v258h236v-258h-236zM1096 1087v-1087h-285v129q-59 -76 -143 -117t-187 -41q-177 0 -267.5 93.5t-90.5 281.5v741h291v-657q0 -114 39 -164.5t129 -50.5q103 0 163 62.5t60 166.5v643h291z" />
<glyph unicode="&#x1ee8;" horiz-adv-x="1468" d="M1919 2003l-313 -370h-142l197 370h258zM1384 864v117q84 24 124 74q20 24 30 57t10 73v25h-164v301h303v-289q0 -151 -75.5 -240.5t-227.5 -117.5zM143 1477h306v-924q0 -172 68 -250t216 -78q147 0 217 78t70 250v924h303v-957q0 -270 -151.5 -415.5t-436.5 -145.5 q-284 0 -438 144t-154 417v957z" />
<glyph unicode="&#x1ee9;" d="M1693 1618l-313 -370h-142l197 370h258zM1157 479v117q84 24 124 74q20 24 30 57t10 73v25h-164v301h303v-289q0 -151 -75.5 -240.5t-227.5 -117.5zM1096 1087v-1087h-285v129q-59 -76 -143 -117t-187 -41q-177 0 -267.5 93.5t-90.5 281.5v741h291v-657q0 -114 39 -164.5 t129 -50.5q103 0 163 62.5t60 166.5v643h291z" />
<glyph unicode="&#x1eea;" horiz-adv-x="1468" d="M1151 2003h258l197 -370h-142zM1384 864v117q84 24 124 74q20 24 30 57t10 73v25h-164v301h303v-289q0 -151 -75.5 -240.5t-227.5 -117.5zM143 1477h306v-924q0 -172 68 -250t216 -78q147 0 217 78t70 250v924h303v-957q0 -270 -151.5 -415.5t-436.5 -145.5 q-284 0 -438 144t-154 417v957z" />
<glyph unicode="&#x1eeb;" d="M925 1618h258l197 -370h-142zM1157 479v117q84 24 124 74q20 24 30 57t10 73v25h-164v301h303v-289q0 -151 -75.5 -240.5t-227.5 -117.5zM1096 1087v-1087h-285v129q-59 -76 -143 -117t-187 -41q-177 0 -267.5 93.5t-90.5 281.5v741h291v-657q0 -114 39 -164.5t129 -50.5 q103 0 163 62.5t60 166.5v643h291z" />
<glyph unicode="&#x1eee;" horiz-adv-x="1468" d="M1853 1907q-26 -125 -77 -184.5t-131 -59.5h-15h-12l-12 2l-36 9l-87 26l-35 7l-31 3q-31 0 -53 -18t-35 -59h-110q24 121 74 178t130 57q25 0 42 -4q22 -3 44 -10l93 -25l25 -6l30 -2q29 0 51 21t35 65h110zM1384 864v117q84 24 124 74q20 24 30 57t10 73v25h-164v301 h303v-289q0 -151 -75.5 -240.5t-227.5 -117.5zM143 1477h306v-924q0 -172 68 -250t216 -78q147 0 217 78t70 250v924h303v-957q0 -270 -151.5 -415.5t-436.5 -145.5q-284 0 -438 144t-154 417v957z" />
<glyph unicode="&#x1eef;" d="M1625 1522q-26 -125 -77 -184.5t-131 -59.5h-15h-12l-12 2l-36 9l-87 26l-35 7l-31 3q-31 0 -53 -18t-35 -59h-110q24 121 74 178t130 57q25 0 42 -4q22 -3 44 -10l93 -25l25 -6l30 -2q29 0 51 21t35 65h110zM1157 479v117q84 24 124 74q20 24 30 57t10 73v25h-164v301 h303v-289q0 -151 -75.5 -240.5t-227.5 -117.5zM1096 1087v-1087h-285v129q-59 -76 -143 -117t-187 -41q-177 0 -267.5 93.5t-90.5 281.5v741h291v-657q0 -114 39 -164.5t129 -50.5q103 0 163 62.5t60 166.5v643h291z" />
<glyph unicode="&#x1ef0;" horiz-adv-x="1468" d="M617 -421v258h236v-258h-236zM1384 864v117q84 24 124 74q20 24 30 57t10 73v25h-164v301h303v-289q0 -151 -75.5 -240.5t-227.5 -117.5zM143 1477h306v-924q0 -172 68 -250t216 -78q147 0 217 78t70 250v924h303v-957q0 -270 -151.5 -415.5t-436.5 -145.5 q-284 0 -438 144t-154 417v957z" />
<glyph unicode="&#x1ef1;" d="M363 -409v258h236v-258h-236zM1157 479v117q84 24 124 74q20 24 30 57t10 73v25h-164v301h303v-289q0 -151 -75.5 -240.5t-227.5 -117.5zM1096 1087v-1087h-285v129q-59 -76 -143 -117t-187 -41q-177 0 -267.5 93.5t-90.5 281.5v741h291v-657q0 -114 39 -164.5t129 -50.5 q103 0 163 62.5t60 166.5v643h291z" />
<glyph unicode="&#x1ef2;" horiz-adv-x="1274" d="M251 2003h258l197 -370h-142zM811 0h-303v549l-535 924h371l315 -635l291 635h346l-485 -924v-549z" />
<glyph unicode="&#x1ef3;" horiz-adv-x="1100" d="M167 1618h258l197 -370h-142zM170 -436v235l29 -3l39 -1q88 0 130 40.5t42 121.5l-2 15l-4 15l-392 1100h320l229 -784l223 784h306l-447 -1282q-49 -143 -126 -196q-38 -27 -92.5 -40t-131.5 -13h-21h-18l-19 2z" />
<glyph unicode="&#x1ef4;" horiz-adv-x="1274" d="M541 -380v258h236v-258h-236zM811 0h-303v549l-535 924h371l315 -635l291 635h346l-485 -924v-549z" />
<glyph unicode="&#x1ef5;" horiz-adv-x="1100" d="M155 -824v258h236v-258h-236zM170 -436v235l29 -3l39 -1q88 0 130 40.5t42 121.5l-2 15l-4 15l-392 1100h320l229 -784l223 784h306l-447 -1282q-49 -143 -126 -196q-38 -27 -92.5 -40t-131.5 -13h-21h-18l-19 2z" />
<glyph unicode="&#x1ef8;" horiz-adv-x="1274" d="M951 1907q-26 -125 -77 -184.5t-131 -59.5h-15h-12l-12 2l-36 9l-87 26l-35 7l-31 3q-31 0 -53 -18t-35 -59h-110q24 121 74 178t130 57q25 0 42 -4q22 -3 44 -10l93 -25l25 -6l30 -2q29 0 51 21t35 65h110zM811 0h-303v549l-535 924h371l315 -635l291 635h346l-485 -924 v-549z" />
<glyph unicode="&#x1ef9;" horiz-adv-x="1100" d="M868 1522q-26 -125 -77 -184.5t-131 -59.5h-15h-12l-12 2l-36 9l-87 26l-35 7l-31 3q-31 0 -53 -18t-35 -59h-110q24 121 74 178t130 57q25 0 42 -4q22 -3 44 -10l93 -25l25 -6l30 -2q29 0 51 21t35 65h110zM170 -436v235l29 -3l39 -1q88 0 130 40.5t42 121.5l-2 15 l-4 15l-392 1100h320l229 -784l223 784h306l-447 -1282q-49 -143 -126 -196q-38 -27 -92.5 -40t-131.5 -13h-21h-18l-19 2z" />
<glyph unicode="&#x2000;" horiz-adv-x="1232" />
<glyph unicode="&#x2001;" horiz-adv-x="2464" />
<glyph unicode="&#x2002;" horiz-adv-x="1232" />
<glyph unicode="&#x2003;" horiz-adv-x="2464" />
<glyph unicode="&#x2004;" horiz-adv-x="821" />
<glyph unicode="&#x2005;" horiz-adv-x="616" />
<glyph unicode="&#x2006;" horiz-adv-x="410" />
<glyph unicode="&#x2007;" horiz-adv-x="410" />
<glyph unicode="&#x2008;" horiz-adv-x="308" />
<glyph unicode="&#x2009;" horiz-adv-x="492" />
<glyph unicode="&#x200a;" horiz-adv-x="136" />
<glyph unicode="&#x2010;" horiz-adv-x="684" d="M61 408v274h562v-274h-562z" />
<glyph unicode="&#x2011;" horiz-adv-x="684" d="M61 408v274h562v-274h-562z" />
<glyph unicode="&#x2012;" horiz-adv-x="684" d="M61 408v274h562v-274h-562z" />
<glyph unicode="&#x2013;" horiz-adv-x="1024" d="M0 434v221h1024v-221h-1024z" />
<glyph unicode="&#x2014;" horiz-adv-x="2048" d="M0 655h2048v-221h-2048v221z" />
<glyph unicode="&#x2018;" horiz-adv-x="532" d="M406 1214v-264h-279v258q0 123 78 212q39 42 90.5 66.5t110.5 24.5v-102q-73 -18 -111.5 -64t-38.5 -118v-13h150z" />
<glyph unicode="&#x2019;" horiz-adv-x="532" d="M127 1208v265h279v-261q0 -123 -78 -212q-39 -42 -90.5 -66.5t-110.5 -24.5v103q74 18 111.5 63.5t37.5 120.5v12h-149z" />
<glyph unicode="&#x201a;" horiz-adv-x="532" d="M127 0v264h279v-258q0 -124 -78 -211q-39 -42 -91 -67t-110 -25v102q74 18 111.5 65t37.5 118v12h-149z" />
<glyph unicode="&#x201c;" horiz-adv-x="901" d="M809 1214v-264h-279v258q0 123 78 212q39 42 90.5 66.5t110.5 24.5v-102q-73 -18 -111.5 -63.5t-38.5 -114.5v-17h150zM369 1214v-264h-279v258q0 123 78 212q39 42 90.5 66.5t110.5 24.5v-102q-73 -18 -111.5 -64t-38.5 -118v-13h150z" />
<glyph unicode="&#x201d;" horiz-adv-x="901" d="M530 1208v265h279v-261q0 -123 -78 -212q-39 -42 -90.5 -66.5t-110.5 -24.5v103q73 18 111.5 63.5t38.5 116.5v16h-150zM90 1208v265h279v-261q0 -123 -78 -212q-39 -42 -90.5 -66.5t-110.5 -24.5v103q73 18 111.5 63.5t38.5 120.5v12h-150z" />
<glyph unicode="&#x201e;" horiz-adv-x="901" d="M530 0v264h279v-258q0 -124 -78 -211q-39 -42 -91 -67t-110 -25v102q73 18 111.5 64t38.5 119v12h-150zM90 0v264h279v-258q0 -124 -78 -211q-39 -42 -91 -67t-110 -25v102q73 18 111.5 65t38.5 118v12h-150z" />
<glyph unicode="&#x2020;" horiz-adv-x="1024" d="M393 -217v1069h-334v188h334v433h238v-433h334v-188h-334v-1069h-238z" />
<glyph unicode="&#x2021;" horiz-adv-x="1024" d="M393 -217v377h-334v190h334v551h-334v191h334v381h238v-381h334v-191h-334v-551h334v-190h-334v-377h-238z" />
<glyph unicode="&#x2022;" horiz-adv-x="1208" d="M307 762q0 121 87 208t210 87q119 0 207 -86.5t88 -208.5t-87.5 -209.5t-209.5 -87.5q-120 0 -207.5 87.5t-87.5 209.5z" />
<glyph unicode="&#x2026;" horiz-adv-x="2048" d="M190 0v301h301v-301h-301zM872 0v301h301v-301h-301zM1556 0v301h301v-301h-301z" />
<glyph unicode="&#x202f;" horiz-adv-x="492" />
<glyph unicode="&#x2030;" horiz-adv-x="2632" d="M2040 332q0 -64 45.5 -111t109.5 -47q63 0 110 46q20 21 33 49.5t13 62.5q0 63 -46 109t-110 46q-66 0 -110.5 -44.5t-44.5 -110.5zM1823 332q0 154 108 262t264 108q153 0 262 -109t109 -261q0 -154 -109 -263.5t-262 -109.5q-156 0 -264 108t-108 265zM1169 332 q0 -64 45.5 -111t110.5 -47q63 0 110 46q20 21 33 49.5t13 62.5q0 63 -46 109t-110 46q-66 0 -111 -44.5t-45 -110.5zM952 332q0 154 108 262t265 108q153 0 262 -109t109 -261q0 -154 -109 -263.5t-262 -109.5q-154 0 -263.5 108.5t-109.5 264.5zM371 -41l854 1473h161 l-854 -1473h-161zM283 1059q0 -67 45 -111.5t110 -44.5q62 0 109 45t47 111q0 63 -46 109t-110 46q-66 0 -110.5 -44.5t-44.5 -110.5zM66 1059q0 156 108.5 264.5t263.5 108.5q153 0 262 -109.5t109 -263.5q0 -153 -109 -262t-262 -109q-80 0 -144 25.5t-121 81.5 q-107 107 -107 264z" />
<glyph unicode="&#x2039;" horiz-adv-x="485" d="M72 416v256l336 289v-238l-205 -178l205 -178v-240z" />
<glyph unicode="&#x203a;" horiz-adv-x="485" d="M412 672v-256l-334 -289v238l205 180l-205 176v240z" />
<glyph unicode="&#x205f;" horiz-adv-x="616" />
<glyph unicode="&#x2122;" horiz-adv-x="1706" d="M803 1462h196l127 -332l123 332h197v-547h-135v410l-154 -410h-61l-158 410v-410h-135v547zM207 1462h485v-112h-168v-435h-149v435h-168v112z" />
<glyph unicode="&#x2202;" horiz-adv-x="1094" d="M762 662l16 96l13 92l7 82l3 74q0 51 -6 89.5t-20 68.5q-26 57 -70 57q-42 0 -145.5 -73t-160.5 -73q-39 0 -71 30q-29 31 -29 73q0 64 87.5 118t209.5 54q192 0 309 -161.5t117 -432.5q0 -339 -156.5 -560t-396.5 -221q-171 0 -282 114t-111 292q0 198 116 329.5 t287 131.5q102 0 169 -42.5t114 -137.5zM700 518q0 114 -38.5 177t-110.5 63q-101 0 -167.5 -134t-66.5 -341q0 -118 38.5 -178t111.5 -60q99 0 166 134.5t67 338.5z" />
<glyph unicode="&#x2211;" horiz-adv-x="1470" d="M66 1473h1308v-265h-878l620 -645l-622 -690h933v-266h-1386v172l698 772l-673 690v232z" />
<glyph unicode="&#x221a;" horiz-adv-x="1346" d="M1141 1694h207v-129h-103l-592 -1606h-100l-311 858l-140 -51l-30 113l331 116l236 -661z" />
<glyph unicode="&#x221e;" horiz-adv-x="1706" d="M942 561q43 -72 105.5 -111.5t140.5 -39.5q93 0 152 55.5t59 144.5q0 83 -54 141t-135 58q-72 0 -135.5 -57.5t-132.5 -190.5zM766 659q-45 74 -107 112t-139 38q-90 0 -150.5 -56.5t-60.5 -144.5q0 -82 54 -140t135 -58q75 0 137.5 56.5t130.5 192.5zM858 457 q-69 -131 -147.5 -194.5t-173.5 -63.5q-136 0 -234 117.5t-98 293.5q0 184 85.5 297t223.5 113q93 0 168.5 -57t165.5 -201q66 132 148 196t175 64q138 0 235 -118t97 -294q0 -183 -86 -296t-223 -113q-94 0 -168 55.5t-168 200.5z" />
<glyph unicode="&#x222b;" horiz-adv-x="1186" d="M342 -252q52 0 87 165q16 81 25 202t9 272l6 211q0 125 8 230t26 206q15 86 37 161t52 135q107 224 328 224q98 0 157.5 -48.5t59.5 -129.5q0 -60 -38 -96.5t-100 -36.5q-42 0 -77 24q-28 22 -41 68l-7 54q0 22 -7.5 33t-22.5 14q-119 0 -119 -633l-6 -178 q0 -42 -3.5 -115.5t-3.5 -96.5q0 -53 -7 -114q-1 -12 -18.5 -141t-57.5 -228q-56 -148 -148.5 -225.5t-214.5 -77.5q-96 0 -156.5 48.5t-60.5 127.5q0 60 39.5 98t104.5 38q50 0 85 -31.5t35 -71.5q0 -55 6 -71.5t23 -16.5z" />
<glyph unicode="&#x2248;" horiz-adv-x="1706" d="M1530 596v-219q-103 -71 -198 -105t-181 -34q-92 0 -287 66q-47 16 -86 27.5t-85 22.5q-76 17 -130 17q-40 0 -83 -9t-91 -27q-43 -18 -96 -48t-115 -74v219q111 72 207.5 107.5t179.5 35.5q123 0 315.5 -65.5t274.5 -65.5q49 0 86 8q41 7 88 27q87 36 201 117z M1530 1008v-220q-100 -68 -194.5 -102.5t-182.5 -34.5q-96 0 -287 65.5t-303 65.5q-82 0 -170 -35t-215 -122v219q102 68 201.5 105.5t185.5 37.5q122 0 315.5 -65.5t274.5 -65.5q34 0 47.5 1.5t45 7.5t78.5 26q87 35 204 117z" />
<glyph unicode="&#x2260;" horiz-adv-x="1706" d="M1198 1233l148 -119l-154 -192h260v-191h-389l-191 -239h580v-193h-707l-245 -309l-148 119l154 190h-252v193h377l190 239h-567v191h696z" />
<glyph unicode="&#x2264;" horiz-adv-x="1706" d="M258 195h1192v-197h-1192v197zM1448 1241v-209l-834 -264l834 -262v-209l-1190 385v174z" />
<glyph unicode="&#x2265;" horiz-adv-x="1706" d="M258 195h1192v-197h-1192v197zM260 1241l1188 -385v-174l-1188 -385v209l832 262l-832 264v209z" />
<glyph unicode="&#x25ca;" horiz-adv-x="1012" d="M506 1409l-385 -817l385 -825l385 825zM506 1653l500 -1061l-500 -1069l-500 1069z" />
<glyph unicode="&#xe000;" horiz-adv-x="1085" d="M0 1085h1085v-1085h-1085v1085z" />
<glyph unicode="&#xfb01;" horiz-adv-x="1221" d="M797 1208v265h291v-265h-291zM797 0v1087h291v-1087h-291zM178 0v883h-155v204h155v101q0 149 78 222t248 73l30 -1l35 -1l35 -1h16q6 0 23 -4v-231h-76q-65 0 -85.5 -17t-20.5 -65v-76h182v-204h-180v-883h-285z" />
</font>
</defs>
</svg>
