<?xml version="1.0" standalone="no"?>
<!DOCTYPE svg PUBLIC "-//W3C//DTD SVG 1.1//EN" "http://www.w3.org/Graphics/SVG/1.1/DTD/svg11.dtd" >
<svg xmlns="http://www.w3.org/2000/svg">
<metadata>
This is a custom SVG webfont generated by Font Squirrel.
Copyright   : Copyright 19901993 Bitstream Inc  All rights reserved
</metadata>
<defs>
<font id="webfontoCil6MJ3" horiz-adv-x="797" >
<font-face units-per-em="2048" ascent="1638" descent="-410" />
<missing-glyph horiz-adv-x="559" />
<glyph unicode=" "  horiz-adv-x="559" />
<glyph unicode="&#x09;" horiz-adv-x="559" />
<glyph unicode="&#xa0;" horiz-adv-x="559" />
<glyph unicode="!" horiz-adv-x="721" d="M141 328l299 901l215 51l-401 -909zM-43 78l199 115l69 -84l58 -62l-185 -108q-21 16 -40 32q-14 12 -37 34q-34 34 -64 73z" />
<glyph unicode="&#x22;" horiz-adv-x="686" d="M526 860h-34l-70 459l-2 14v23q0 52 22.5 79t65.5 27q42 0 66 -27t24 -75l-1 -25l-1 -16zM195 860h-35l-70 459l-3 26l-1 15q0 48 24 75t66 27q43 0 66.5 -28t23.5 -78l-1 -24l-1 -14z" />
<glyph unicode="#" horiz-adv-x="1575" d="M702 864l-98 -276h283l96 276h-281zM760 1458h155l-161 -454h276l162 454h156l-162 -454h301l-49 -140h-301l-97 -276h320l-49 -139h-320l-162 -453h-155l162 453h-279l-162 -453h-153l159 453h-313l51 139h312l98 276h-336l51 140h334z" />
<glyph unicode="$" horiz-adv-x="1118" d="M414 213l13 -2l71 -6q83 0 136.5 30t53.5 76q0 35 -42 75t-126 85zM532 715l109 260l-32 6l-34 2q-89 0 -142.5 -29.5t-53.5 -79.5q0 -35 38.5 -75t114.5 -84zM768 1290l56 13l54 13l-90 -192q47 -9 90 -36q44 -24 93 -72l-129 -246l-30 12l13 37l4 25q0 28 -27 56.5 t-81 53.5l-115 -278q116 -60 163.5 -109t47.5 -102q0 -95 -83 -201.5t-206 -165.5q-34 -17 -74.5 -27t-80.5 -10h-23l-67 -176l-113 -35l94 222q-64 23 -111.5 55.5t-86.5 79.5l114 246l31 -15q-8 -13 -12 -29.5t-4 -39.5q0 -33 37.5 -68t101.5 -61l114 272l-8 6 q-200 125 -200 207q0 77 62 167.5t169 164.5q26 18 53.5 33t55.5 26q27 9 54 14t56 5h17z" />
<glyph unicode="%" horiz-adv-x="1593" d="M1018 610q-66 -60 -109 -151.5t-43 -175.5q0 -115 68.5 -189t175.5 -74h8q65 65 106.5 160.5t41.5 188.5q0 100 -69.5 170.5t-164.5 70.5h-14zM954 -68q-91 0 -156 76t-65 189q0 75 39 165t107 164q73 82 149 124t152 42q92 0 154.5 -66.5t62.5 -168.5q0 -83 -41 -182 t-111.5 -179t-145 -122t-145.5 -42zM391 1143q-66 -61 -108.5 -152.5t-42.5 -175.5q0 -113 68.5 -187.5t174.5 -74.5h11q66 65 105 159q20 49 30 94.5t10 94.5q0 100 -69 171t-164 71h-15zM334 465q-95 0 -160 75.5t-65 188.5q0 79 38.5 166.5t104.5 163.5q74 81 151 125 q38 21 75.5 32t74.5 11q93 0 156 -66t63 -170q0 -84 -41 -182t-113 -180q-67 -75 -144 -119.5t-140 -44.5zM231 -66l957 1280h74l-961 -1280h-70z" />
<glyph unicode="&#x26;" horiz-adv-x="1139" d="M332 643q-135 -123 -197.5 -212t-62.5 -155q0 -52 22.5 -75t73.5 -23q49 0 96 32q25 16 50 41t53 60q-14 71 -25 162q-4 36 -7 82.5t-3 87.5zM469 815q95 91 142.5 161t47.5 120q0 32 -18.5 51.5t-48.5 19.5q-14 0 -25 -5q-12 -3 -26 -13q-32 -53 -52 -138 q-9 -40 -14.5 -93t-5.5 -103zM1024 -203l-6 -30q-79 -40 -153 -61t-111 -21q-123 0 -219.5 147.5t-157.5 429.5q-123 -159 -223 -241t-170 -82q-49 0 -79 36.5t-30 100.5q0 115 107 261q53 73 140.5 163.5t209.5 197.5v23q0 112 30.5 212.5t96.5 203.5q71 111 147 175 t139 64q43 0 70 -27.5t27 -74.5q0 -76 -95.5 -208.5t-273.5 -304.5q0 -81 8 -161q0 -29 3 -51t16 -84l40 61q19 31 33 64l85 -9l96 -3l102 3l159 10l-45 -43q-98 -95 -136 -118q-49 -12 -100.5 -18t-102.5 -6l-58 1l-65 4q95 -309 205 -465.5t235 -156.5q24 0 33 1 q21 5 32 6z" />
<glyph unicode="'" horiz-adv-x="352" d="M195 860h-35l-70 459l-1 8l-3 29q0 51 24 78.5t66 27.5t66 -27t24 -75l-1 -15l-3 -27z" />
<glyph unicode="(" horiz-adv-x="578" d="M-8 -457q-10 39 -16.5 76.5t-11.5 84.5t-8 100t-3 102q0 481 198 880.5t586 702.5l121 18q-369 -308 -550 -684t-181 -837q0 -92 10 -179q4 -43 11.5 -89.5t19.5 -94.5z" />
<glyph unicode=")" horiz-adv-x="578" d="M381 1507q10 -39 16.5 -76.5t11.5 -84t8 -99.5t3 -102q0 -483 -198.5 -881.5t-586.5 -701.5l-120 -19q369 310 550 686t181 836q0 94 -10 179.5t-31 182.5z" />
<glyph unicode="*" horiz-adv-x="1024" d="M565 1190q-23 11 -54.5 27.5t-57.5 31.5q-43 25 -66 40q-8 5 -39 28l53 147q37 -52 90 -109q23 -25 52 -53q26 -25 59 -54q9 75 21 135.5t30 111.5l160 -4q-39 -56 -79 -126q-34 -62 -64 -134q54 11 123 19q33 3 64 5t65 2l45 -153q-71 22 -143 36q-49 10 -73 14 q-44 7 -79 7q32 -59 62 -122q26 -56 42 -109l-131 -88q0 64 -9 138t-28 155q-42 -46 -86.5 -86.5t-99.5 -81.5l-125 96q66 20 132.5 51.5t135.5 75.5z" />
<glyph unicode="+" horiz-adv-x="1706" d="M782 1221h142v-541h528v-139h-528v-541h-142v541h-528v139h528v541z" />
<glyph unicode="," horiz-adv-x="559" d="M127 190q26 -47 36.5 -79t10.5 -54q0 -64 -84 -141.5t-229 -142.5l-13 28q64 36 92.5 76t28.5 88q0 28 -10 54t-37 59z" />
<glyph unicode="-" horiz-adv-x="545" d="M228 412l-87 7l-61 3q-15 0 -31.5 -1t-32.5 -4q-21 -2 -32 -4t-34 -9l-11 12l198 151l89 -8l75 -2h30q15 3 22 4q32 5 36 6q17 6 25 8l12 -12z" />
<glyph unicode="." horiz-adv-x="559" d="M-121 78l199 117l64 -79q30 -36 63 -69l-185 -108q-19 14 -36 29l-37 34q-31 31 -68 76z" />
<glyph unicode="/" horiz-adv-x="768" d="M735 1507h80l-903 -1769h-80z" />
<glyph unicode="0" horiz-adv-x="1118" d="M350 -57q-160 0 -266.5 123.5t-106.5 314.5q0 128 63.5 277t174.5 274q121 138 247 208t247 70q154 0 255 -110t101 -283q0 -75 -16 -148.5t-52 -158.5q-66 -161 -184 -299q-106 -125 -230 -196.5t-233 -71.5zM449 1085q-120 -115 -192.5 -272t-72.5 -301 q0 -192 110.5 -316t287.5 -124l7 1l13 1q114 111 183 276.5t69 327.5q0 173 -111 290t-272 117h-22z" />
<glyph unicode="1" horiz-adv-x="1118" d="M193 -74l151 397l132 357l98 276q34 98 51 156q-66 -33 -130 -53t-135 -29l9 57q140 30 275.5 86.5t248.5 135.5l-367 -1022l-44 -132l-46 -153q-52 -11 -114 -30q-33 -10 -60.5 -19.5t-68.5 -26.5z" />
<glyph unicode="2" horiz-adv-x="1118" d="M836 207l26 -4l-213 -254l-586 69l-206 -65l-9 18l27 31q105 122 164 199l80 -8q284 140 462.5 337t178.5 359q0 104 -64 168.5t-170 64.5q-65 0 -95.5 -15.5t-48.5 -79.5t-41 -118t-49 -96q-51 -84 -81 -84q-11 0 -20 23q-7 28 -7 63q0 178 156.5 297t390.5 119 q127 0 201 -68t74 -184q0 -86 -50 -179.5t-153 -196.5q-202 -203 -584 -419l318 -30l36 -4h50q32 0 59.5 3t55.5 11q54 13 98 43z" />
<glyph unicode="3" horiz-adv-x="1118" d="M430 705h25q10 0 22.5 -1t26.5 -4q29 -3 59 -10q109 52 162 113.5t53 136.5q0 69 -57.5 115.5t-149.5 46.5q-16 0 -31.5 -1t-35 -4.5t-41.5 -15.5q-29 -124 -76.5 -209.5t-75.5 -85.5q-11 0 -17.5 17t-6.5 47q0 152 139.5 265.5t327.5 113.5q110 0 181 -56.5t71 -142.5 q0 -110 -101 -204.5t-291 -155.5q95 -33 151 -102.5t56 -153.5q0 -82 -38 -152.5t-128.5 -154t-193.5 -131.5t-199 -48q-104 0 -193 59.5t-89 108.5q0 13 10.5 20t29.5 7q40 0 160 -41t199 -41q115 0 195.5 66.5t80.5 160.5q0 108 -131 193q-71 46 -149 70q-90 28 -187 28z " />
<glyph unicode="4" horiz-adv-x="1118" d="M293 -80l196 475h-339l-79 -5l-138 -7l606 549q75 66 134 127.5t109 124.5q63 9 124 24q27 7 56.5 15.5t59.5 19.5l-280 -702h23q11 0 28 -2h79l101 2h20q11 0 25 2l-93 -105l-47 -59l-76 5l-118 7l-156 -430q-32 -3 -63.5 -7t-74 -11.5t-97.5 -22.5zM543 537l200 518 l-69 -72l-62 -59l-413 -377z" />
<glyph unicode="5" horiz-adv-x="1118" d="M461 1227l164 -7l137 -1q191 0 248 32l6 2q9 0 11.5 -4t2.5 -8l-43 -63q-42 -61 -76 -131h-460l-103 -236q29 11 56.5 15t41 4.5t21.5 0.5q158 0 251 -86t93 -229q0 -144 -81.5 -277t-244.5 -249q-49 -36 -116 -58t-133 -22q-103 0 -189 48.5t-86 88.5q0 15 9.5 21 t39.5 6q80 0 224.5 -17.5t197.5 -17.5q83 0 151 90.5t68 214.5q0 130 -84.5 205.5t-234.5 75.5l-66 -3q-38 -3 -42 -4q-20 -5 -29 -6z" />
<glyph unicode="6" horiz-adv-x="1118" d="M289 670q-39 -85 -60 -159q-10 -37 -15 -68t-5 -62q0 -122 90.5 -209.5t206.5 -87.5l28 3q16 4 27 11q100 65 153.5 156.5t53.5 204.5q0 135 -70 217t-184 82q-47 0 -107 -23t-118 -65zM840 1245l168 -55q-208 -60 -377.5 -172t-290.5 -268l13 9q244 175 352 175 q105 0 181.5 -88.5t76.5 -214.5q0 -60 -21 -129.5t-55 -122.5q-94 -139 -174 -221q-75 -75 -172 -131q-77 -45 -149 -70q-32 -11 -64 -18t-56 -7q-109 0 -185.5 93.5t-76.5 232.5q0 239 224.5 509.5t605.5 477.5z" />
<glyph unicode="7" horiz-adv-x="1118" d="M399 1225q72 -8 84 -9q91 -10 144 -10q38 0 117 -3t120 -3q109 0 168 6.5t117 22.5q-229 -259 -447.5 -560t-463.5 -701q-59 -8 -102 -20t-87 -30l192 244l111 145l506 721l-19 -2h-34l-27 1q-37 0 -60 1q-90 4 -97 4q-195 0 -288 -15.5t-128 -53.5l-23 24z" />
<glyph unicode="8" horiz-adv-x="1118" d="M338 553q-81 -67 -123.5 -131.5t-42.5 -122.5q0 -72 69 -114t185 -42q81 0 152.5 27t117.5 78q-27 123 -288 266zM707 623q85 74 131 139q22 32 32.5 61.5t10.5 59.5q0 69 -76.5 117.5t-186.5 48.5q-79 0 -149.5 -27.5t-116.5 -73.5q0 -74 66.5 -139t288.5 -186zM301 575 q-46 55 -68 97q-18 41 -18 86q0 87 56.5 179t174.5 198q68 57 137 86q35 14 70 21t76 7q131 0 219 -70t88 -173q0 -86 -72.5 -186t-222.5 -220q60 -48 79.5 -81.5t19.5 -76.5q0 -101 -79.5 -217.5t-223.5 -220.5q-46 -33 -112.5 -55.5t-117.5 -22.5q-125 0 -213 71.5 t-88 172.5q0 92 70.5 189.5t224.5 215.5z" />
<glyph unicode="9" horiz-adv-x="1118" d="M780 578q14 40 22 86q3 22 5 43t2 45q0 160 -74 250t-207 90q-37 0 -65 -18.5t-62 -65.5q-48 -72 -75 -145.5t-27 -137.5q0 -105 68.5 -171.5t179.5 -66.5q57 0 119 24t114 67zM88 -59q256 118 433.5 270t244.5 311q-140 -130 -221 -177.5t-156 -47.5q-119 0 -197.5 84.5 t-78.5 220.5q0 68 18 131.5t57 128.5q55 92 140 167.5t198 129.5q59 27 120.5 45.5t98.5 18.5q108 0 189.5 -95t81.5 -229q0 -193 -174 -444t-494 -514h-260z" />
<glyph unicode=":" horiz-adv-x="559" d="M8 422l199 117l64 -79q30 -36 63 -69l-182 -108q-37 27 -75 64t-69 75zM-121 78l199 117l64 -79q30 -36 63 -69l-185 -108q-19 14 -36 29l-37 34q-31 31 -68 76z" />
<glyph unicode=";" horiz-adv-x="559" d="M127 190q26 -47 36.5 -79t10.5 -54q0 -64 -84 -141.5t-229 -142.5l-13 28q64 36 92.5 76t28.5 88q0 28 -10 54t-37 59zM8 422l199 117l64 -79q30 -36 63 -69l-182 -110q-36 28 -76 66q-25 25 -35 36z" />
<glyph unicode="&#x3c;" horiz-adv-x="1706" d="M1442 1159v-153l-969 -396l969 -393v-154l-1178 484v129z" />
<glyph unicode="=" horiz-adv-x="1706" d="M254 481h1198v-139h-1198v139zM254 879h1198v-140h-1198v140z" />
<glyph unicode="&#x3e;" horiz-adv-x="1706" d="M264 1159l1178 -483v-129l-1178 -484v154l971 393l-971 396v153z" />
<glyph unicode="?" horiz-adv-x="995" d="M37 78l199 117l26 -35q12 -16 30 -34l70 -79l-184 -108q-39 30 -74.5 65.5t-66.5 73.5zM299 287q-12 12 -23 25q-14 16 -38 47q-17 23 -28.5 40.5t-25.5 42.5q291 157 425 281.5t134 232.5q0 73 -48.5 115.5t-137.5 42.5q-53 0 -101 -19.5t-83 -56.5q0 -67 -12 -124.5 t-36 -116.5q-41 -103 -77 -103q-17 0 -31 30q-12 30 -12 77q0 55 18 106q10 27 22.5 49.5t33.5 49.5q81 105 214.5 175t243.5 70q101 0 161 -53t60 -141q0 -128 -113 -243t-433 -292l37 -63l40 -62z" />
<glyph unicode="@" horiz-adv-x="2019" d="M1186 332q-61 -105 -137 -156t-170 -51q-129 0 -206 92t-77 246q0 109 49.5 216t140.5 195q68 65 146.5 99.5t154.5 34.5q90 0 145.5 -48.5t76.5 -142.5l51 174h158l-172 -612l-4 -12q-15 -56 -15 -86q0 -27 5 -45.5t18 -33.5q25 -28 67 -28q34 0 81.5 20t88.5 52 q117 89 178.5 228.5t61.5 318.5q0 133 -52 244.5t-157 201.5q-89 76 -213 118t-268 42q-182 0 -335.5 -60.5t-277.5 -182.5t-188 -286.5t-64 -357.5q0 -181 57.5 -313t178.5 -234q109 -92 255 -141t306 -49q171 0 328 52t299 155l33 -41q-146 -109 -312.5 -165.5 t-345.5 -56.5q-190 0 -345.5 45.5t-274.5 135.5q-150 113 -231 276q-39 82 -59 171.5t-20 189.5q0 204 86 379.5t252 314.5q131 109 293.5 166t343.5 57q345 0 554.5 -188.5t209.5 -499.5q0 -161 -58 -299t-167 -236q-56 -49 -126 -80q-35 -14 -66.5 -21t-67.5 -7 q-96 0 -149 53q-28 28 -44 67t-16 89zM1104 961q-55 0 -98.5 -30.5t-90.5 -99.5q-68 -103 -111.5 -231.5t-43.5 -230.5q0 -85 39.5 -138t101.5 -53q64 0 121.5 43t111.5 133.5t89 203.5q16 53 25 104.5t9 93.5q0 91 -42 148t-111 57z" />
<glyph unicode="A" horiz-adv-x="1290" d="M496 621q57 -12 102 -18l82 -5h12l27 2q0 56 8 127l18 140q18 159 43 331q-28 -67 -60.5 -137.5t-70.5 -144.5q-78 -154 -161 -295zM815 1449l121 43l106 42q-58 -186 -96 -417l-24 -158q-15 -107 -22 -184.5t-7 -172.5l67 3q17 0 50 5l41 6l-71 -47q-34 -21 -71 -37 l-26 -6l-7 -111l-2 -83q0 -76 11.5 -104.5t38.5 -28.5q26 0 58 29.5t69 86.5l10 -41q-148 -187 -216 -251t-108 -64q-30 0 -50.5 35.5t-20.5 93.5q0 43 10 149q5 52 11.5 110t16.5 140l-62 -5l-60 -1l-79 1l-87 5q-231 -374 -376 -539t-239 -165q-57 0 -90 36.5t-33 100.5 q0 98 60 218q57 115 174 245l41 4q-69 -87 -107.5 -165t-38.5 -134q0 -42 20.5 -66t55.5 -24q71 0 177.5 108.5t297.5 384.5q-15 0 -28 0.5t-53 4.5q-20 0 -29 1l-51 9q73 34 132 67q69 39 126 76q166 281 262 492q48 107 73 183t25 125z" />
<glyph unicode="B" horiz-adv-x="1255" d="M412 676l241 94q26 -3 45 -9l19 -5q8 -2 20 -8q116 106 187 239.5t71 237.5q0 37 -11 55t-34 18q-68 0 -235.5 -182.5t-302.5 -439.5zM209 1270q159 111 260 171q107 64 127 64t30.5 -13.5t10.5 -39.5q0 -61 -42.5 -204.5t-139.5 -411.5q208 307 407 499.5t295 192.5 q42 0 69 -45.5t27 -120.5q0 -142 -108.5 -288.5t-364.5 -344.5q88 -34 139.5 -105.5t51.5 -160.5q0 -138 -105 -284.5t-295 -266.5q-93 15 -151 86.5t-58 175.5q0 48 12 101q6 25 15.5 52t22.5 54l24 18l-8 -45l-2 -51q0 -121 65 -199q35 -40 76.5 -60.5t94.5 -20.5 q63 81 99 168t36 163q0 127 -98.5 197.5t-307.5 91.5l-106 -251l-127 -312l-105 -82l-105 -81l-7 16l-2 18q0 54 105 291q98 221 168 402t116.5 362t46.5 243q0 24 -11 38q-4 5 -11.5 9t-16.5 4q-14 0 -42 -14.5t-87 -54.5z" />
<glyph unicode="C" horiz-adv-x="1118" d="M825 449l105 18q-182 -261 -354.5 -393.5t-331.5 -132.5q-131 0 -207 83t-76 224q0 148 75 322t220 358q202 256 429 411.5t386 155.5q61 0 98 -34t37 -91q0 -89 -75 -202q-37 -54 -96.5 -118.5t-140 -137t-174.5 -130.5q-86 -52 -185 -92l-21 58q206 57 348 191.5 t142 256.5q0 63 -44 106.5t-110 43.5q-54 0 -122.5 -36t-143.5 -104q-96 -86 -183.5 -210t-152.5 -265q-36 -80 -56 -161t-20 -144q0 -150 73.5 -231.5t211.5 -81.5q42 0 75.5 6.5t59.5 19.5q85 85 142 160.5t91 149.5z" />
<glyph unicode="D" horiz-adv-x="1479" d="M293 223q149 -43 266 -66q57 -10 110 -16t93 -6q34 0 68 4t66 13q64 18 105 49q96 67 175 250q39 92 59 180t20 176q0 190 -103 327.5t-290 194.5q-10 -17 -60 -111l-118 -227l-179 -351zM88 764l-9 69l-3 68q0 86 15 139.5t52 94.5q153 174 345 268t395 94 q240 0 399.5 -169t159.5 -429q0 -221 -132 -432.5t-382 -386.5q-80 -56 -166 -88.5t-156 -32.5q-82 0 -273 53l-175 45q-82 -69 -153 -115t-91 -46q-9 0 -12 3l-4 11q0 34 64 171l7 15q46 97 73 133.5t48 36.5q26 0 118 -22l9 -2q15 41 59 145l108 254l84 197l75 176l65 155 q66 45 120 87q60 47 99 83l-34 3l-54 1q-139 0 -265.5 -39.5t-164.5 -89.5q-31 -37 -78 -134q-38 -78 -143 -316z" />
<glyph unicode="E" horiz-adv-x="1096" d="M768 436l98 13q-120 -230 -292.5 -367t-333.5 -137q-116 0 -195.5 75t-79.5 189q0 141 135.5 283.5t370.5 240.5q-94 35 -138 82t-44 113q0 85 72 178t247 231q112 89 174 121q30 15 58 23t53 8q82 0 144.5 -45t62.5 -98q0 -67 -64 -145t-190 -167l-33 17q50 35 76 69.5 t26 67.5q0 50 -52 90.5t-120 40.5q-21 0 -31 -1t-29 -7q-29 -6 -56 -23q-63 -58 -99 -120q-16 -29 -25 -58t-9 -53q0 -96 103.5 -165t260.5 -69h19q-54 -34 -104 -70l-32 -23q-21 -15 -51 -40l-63 9l-45 3q-35 0 -74 -10q-41 -9 -78 -28q-110 -54 -181 -148t-71 -182 q0 -82 60 -131t163 -49q74 0 136 15t114 48q38 53 67 107q26 48 50 112z" />
<glyph unicode="F" horiz-adv-x="1143" d="M199 1061q74 188 191 313t202 125q75 0 288 -71q207 -66 359 -101l-121 -62q-72 -35 -100 -51q-56 -116 -102 -230l-46 -120q-19 -52 -43 -125l31 -3l51 -1h43q17 0 26 2l-96 -57l-104 -68l-46 -130q-96 -274 -157 -332q-101 -98 -203.5 -157t-166.5 -59t-98.5 30.5 t-34.5 84.5q0 66 54 159.5t155 197.5l34 14q-28 -43 -47 -89q-16 -45 -16 -79q0 -56 38.5 -93.5t94.5 -37.5l24 1l25 5q21 38 42.5 86t46.5 110q46 118 103 302q-73 0 -141 6q-7 1 -84 10q-108 12 -213 33q29 15 52.5 28.5t49.5 30.5l97 66l86 -20q11 -2 74 -15 q53 -10 62 -11q33 -5 57 -5l88 308l20 74q43 12 82 33t78 56q-67 6 -221 55t-246 49q-74 0 -111.5 -53t-66.5 -209h-90z" />
<glyph unicode="G" horiz-adv-x="1219" d="M272 -78l-5 -31l-1 -30q0 -54 20.5 -98t63.5 -78q117 74 243 393q73 182 126 289l-8 6q-120 -192 -231 -308q-107 -110 -208 -143zM870 930h-55q70 63 112 137t42 137q0 62 -36.5 99.5t-96.5 37.5q-72 0 -153.5 -45t-168.5 -137q-150 -157 -244 -368.5t-94 -387.5 q0 -135 57 -213.5t150 -78.5h16q13 3 25 5t33 11q72 69 162.5 207t166.5 302q-34 5 -70 8l-59 6q-29 0 -48 1q-74 4 -83 4l185 121q100 -15 190 -24q28 0 110 -7q47 -4 66 -4q-119 -130 -208 -378l-27 -74q-116 -309 -254 -472t-346 -259q-22 36 -33 78q-10 45 -10 96 q0 48 9 96.5t30 95.5q-59 0 -105.5 26t-85.5 78q-72 96 -72 251q0 203 139.5 460t366.5 461q156 138 298 219.5t231 81.5q68 0 112.5 -38.5t44.5 -100.5q0 -72 -82 -193.5t-215 -238.5z" />
<glyph unicode="H" horiz-adv-x="1479" d="M-436 29l94 -11q44 -5 74 -5q35 0 89 -2.5t60 -2.5q165 0 409 611l11 28l-162 19l217 145q49 131 82 255q15 61 23 100.5t8 60.5q0 24 -8 33.5t-27 9.5q-12 0 -47.5 -13t-93.5 -40v36q187 120 282 172t123 52q21 0 32 -16.5t11 -47.5q0 -50 -54.5 -214.5t-163.5 -434.5 q43 0 95 -4l86 -8q53 0 153 -11l120 -14q82 247 136 392q58 153 112 270q78 17 141 35.5t117 39.5q-69 -121 -215 -463q-82 -197 -121 -282l37 -1l45 -1l43 1l61 5l-223 -121q-46 -112 -73 -215.5t-27 -165.5q0 -42 9.5 -62t31.5 -20q24 0 55 29t74 92l14 -45 q-105 -136 -198 -219q-47 -41 -80 -61.5t-56 -20.5q-36 0 -58 35q-20 35 -20 100q0 98 38.5 236t117.5 323l-17 -1l-16 -1h-45q-36 0 -101 2.5t-81 2.5q-39 0 -78 3l-123 12l-16 -52q-77 -260 -145 -368.5t-508 -317.5l-19 -9z" />
<glyph unicode="I" horiz-adv-x="883" d="M213 1079q60 177 189 288.5t266 111.5q21 0 73 -2.5t73 -2.5l130 -4q-60 -51 -96.5 -94t-59.5 -88q-46 -91 -132.5 -399.5t-166.5 -495.5q-89 -214 -239.5 -379t-284.5 -202q-25 24 -40 62t-15 85q0 76 23 165.5t67 188.5l104 78q-23 -42 -40 -116t-17 -136 q0 -66 15.5 -108t48.5 -60q62 74 118 204q52 125 141 438.5t151 481t112 226.5l-52 3l-46 3q-32 0 -66 -7q-25 -4 -38 -7.5t-40 -12.5q-21 -24 -39 -63q-8 -17 -23 -60l-18 -49l-40 -21z" />
<glyph unicode="J" horiz-adv-x="973" d="M1061 1452q-134 -101 -314 -682l-63 -203l-56 -174l-50 -145q-19 -52 -23 -64q-18 -47 -42 -101q-33 -78 -62 -128q-44 -75 -114 -149q-66 -69 -181 -154q-51 -37 -110 -64.5t-77 -27.5q-27 0 -53.5 44.5t-26.5 104.5q0 114 54 244t159 270l62 21q-55 -73 -89 -182 t-34 -216q0 -61 13 -99t40 -56q55 50 123.5 163t124.5 257q60 154 185 578q121 418 230 624l-66 7l-56 3h-35q-15 0 -43 -4q-32 -3 -61 -12q-76 -96 -118 -194q-20 -50 -30 -94.5t-10 -90.5q0 -67 30.5 -105.5t82.5 -38.5q15 0 28.5 4.5t25.5 13.5q-44 -54 -97 -108.5 t-129 -120.5q-57 19 -85 65t-28 114q0 60 17 125t54 142t83 144t108 133q86 90 156 134.5t129 44.5q50 0 159 -11.5t156 -11.5h33z" />
<glyph unicode="K" horiz-adv-x="1384" d="M-78 -125q197 441 328 833.5t131 485.5q0 27 -11 41q-9 14 -30 14q-16 0 -43.5 -13.5t-69.5 -45.5l-12 39q144 108 258 180t135 72q24 0 36.5 -18t12.5 -50q0 -48 -64.5 -252.5t-174.5 -500.5q40 0 75 6q3 1 42 10q55 12 104 31q264 326 486.5 555t256.5 229q9 0 19 -11 q9 -8 10 -22q0 -126 -203.5 -349t-545.5 -456q97 -269 167 -395.5t123 -126.5q24 0 59 29q18 14 36 34t36 46l11 -43q-90 -129 -172.5 -209t-120.5 -80q-59 0 -224 424l-61 160q-122 -131 -210 -244t-150 -219l-111 -72zM254 250l100 119l140 168q-22 51 -41 75 q-18 27 -37 37l-42 -118l-41 -105q-39 -95 -79 -176z" />
<glyph unicode="L" horiz-adv-x="1233" d="M852 954l-37 17q92 69 137 130t45 120q0 61 -36.5 97t-102.5 36q-16 0 -42 -6q-8 -2 -24.5 -7t-27.5 -10q-18 -15 -37.5 -40.5t-40.5 -63.5q-39 -70 -100 -217q-10 -23 -35 -93l-30 -81q-123 -347 -250 -530q59 -7 221 -144l24 -21q88 -74 147 -106q31 -16 57 -24.5 t52 -8.5q63 36 113 100.5t90 163.5l108 21q-95 -157 -222 -276t-265 -185q-75 14 -216.5 145.5t-229.5 188.5q-103 -112 -205.5 -180t-159.5 -68q-12 0 -20 5t-9 15q0 70 110 186t265 177q25 63 63 169l90 256q102 297 175 410q43 68 121 132q40 32 91 66t115 69 q88 48 168.5 76t141.5 28q64 0 97.5 -25.5t33.5 -74.5q0 -80 -97.5 -197t-277.5 -250z" />
<glyph unicode="M" horiz-adv-x="1835" d="M383 1290l6 39q174 99 245 132.5t105 33.5q48 0 66 -39t18 -215q0 -22 -10 -253q-5 -116 -5 -202q0 -107 -5 -206.5t-10 -210.5v-41q0 -34 4 -44.5t16 -11.5q18 0 99 120l62 95l79 126l98 159q135 227 187.5 356.5t52.5 223.5v4q107 54 110 56l67 38q85 47 93 49 q5 -3 6 -5l4 -9q0 -2 -3 -13t-10 -30q-55 -148 -87 -299q-68 -323 -115 -595q-22 -134 -32.5 -216t-10.5 -121q0 -29 9 -45t28 -16q22 0 52 24t79 82l14 -39q-61 -71 -117 -130q-52 -55 -99 -97q-88 -80 -126 -80q-33 0 -51 27.5t-18 80.5q0 82 49 370.5t129 645.5 q-351 -579 -518 -821t-213 -242q-23 0 -35 27q-10 30 -10 106q5 90 8.5 197t3.5 205q0 111 4 214t9 215t5 179q-142 -347 -307 -653t-325 -522q-81 -107 -150 -160t-131 -53q-51 0 -85 37.5t-34 95.5q0 93 63.5 213.5t184.5 253.5l41 6q-66 -90 -99.5 -162.5t-33.5 -120.5 q0 -38 18 -60t54 -22q70 0 153 83q41 41 92.5 109.5t108.5 159.5q193 309 314.5 577.5t121.5 375.5q0 39 -15.5 56.5t-49.5 17.5q-27 0 -67.5 -15t-86.5 -41z" />
<glyph unicode="N" horiz-adv-x="1479" d="M197 1221q120 105 229 176q104 65 203 98q94 -147 188 -486q89 -324 164 -798q78 144 142 279q61 129 105.5 248.5t66.5 210t22 159.5q0 80 -29.5 124t-83.5 44q-42 0 -81.5 -29t-80.5 -88l-20 35q98 137 192 217t152 80q39 0 61.5 -38.5t22.5 -106.5 q0 -215 -160.5 -609.5t-441.5 -849.5l-17 -2q-46 360 -112.5 671t-147.5 554q-73 -254 -184.5 -512t-255.5 -504q-108 -183 -192 -279t-136 -96q-32 0 -55.5 37t-23.5 90q0 111 56.5 227.5t184.5 262.5l64 18q-81 -78 -125.5 -158.5t-44.5 -148.5q0 -24 10 -37.5t31 -13.5 q49 0 113 70.5t147 216.5q157 279 258.5 533t101.5 347q0 59 -26.5 91t-77.5 32q-42 0 -99 -29.5t-112 -80.5z" />
<glyph unicode="O" horiz-adv-x="1374" d="M645 1366l33 -6q-217 -166 -339 -393.5t-122 -464.5q0 -177 101 -283t268 -106q83 0 157 33t144 104q118 121 196 309t78 354t-71 265.5t-189 99.5q-91 0 -178.5 -62.5t-177.5 -193.5l-51 -2q60 80 187 233q123 149 153 207q34 16 78.5 25.5t97.5 9.5q161 0 267.5 -120.5 t106.5 -305.5q0 -224 -112.5 -441t-325.5 -403q-160 -139 -309.5 -216t-259.5 -77q-178 0 -281.5 111.5t-103.5 304.5q0 277 173 546.5t480 471.5z" />
<glyph unicode="P" horiz-adv-x="1214" d="M217 1182l4 51l308 202q77 48 89 48q21 0 30 -12.5t9 -43.5q0 -26 -6 -62t-20 -87q-24 -93 -90 -287l10 -6q76 111 152 201.5t150 158.5q151 140 228 140q64 0 102 -63.5t38 -172.5q0 -181 -88.5 -357.5t-243.5 -301.5q-117 -94 -250 -149q-67 -26 -128.5 -39t-125.5 -13 h-39q-15 0 -22 2q-58 -151 -80.5 -222.5t-22.5 -98.5q0 -17 9 -29q10 -10 26 -10q22 0 60 18l28 15q29 17 59 38l-2 -45q-180 -114 -263.5 -159t-119.5 -45q-27 0 -42 14.5t-15 42.5q0 38 40.5 146.5t156.5 377.5l-40 30l-19 17q-12 11 -23 23q39 22 70 43q34 21 61 43 q106 281 145 412t39 190q0 25 -11 37t-34 12q-25 0 -60 -15.5t-69 -43.5zM365 506q31 -11 68 -19q35 -6 71 -6q52 0 93.5 10.5t80.5 32.5q47 27 88 67.5t82 100.5q72 107 111.5 223.5t39.5 214.5q0 72 -21 109t-65 37q-102 0 -259 -214t-289 -556z" />
<glyph unicode="Q" horiz-adv-x="1384" d="M1104 141l63 -2q-135 -159 -258 -240t-231 -81q-102 0 -227.5 36.5t-313.5 120.5l-47 -10l-51 -4q-17 0 -31 2t-33 9q-35 9 -69 30l194 195q43 -8 158 -52l69 -26q334 119 546 374.5t212 522.5q0 148 -72.5 232.5t-203.5 84.5q-184 0 -326.5 -192.5t-142.5 -452.5 q0 -112 46.5 -173.5t131.5 -61.5q63 0 123 33t100 94h58q-102 -131 -230 -213t-227 -82q-103 0 -167 78t-64 206q0 65 15 130.5t47 134.5q62 136 185 274q152 170 335 273.5t321 103.5q140 0 226.5 -97t86.5 -260q0 -296 -241 -565t-697 -477q74 -31 133 -52t112.5 -36 t92.5 -22t76 -7q88 0 162 42.5t139 129.5z" />
<glyph unicode="R" horiz-adv-x="1356" d="M453 644l6 2q117 56 159 79l31 -3l49 -1l25 1l39 5q120 75 204 216q41 70 63 134t22 119q0 43 -14 64.5t-42 21.5q-68 0 -225 -179.5t-317 -458.5zM238 1188l-5 47l217 138q174 112 197 112q17 0 29 -16q10 -17 10 -46q0 -48 -36 -191t-97 -331l4 -8q207 285 378.5 444.5 t264.5 159.5q42 0 69 -41.5t27 -109.5q0 -100 -45.5 -216t-120.5 -208q-68 -85 -185 -152q-111 -64 -286 -119q158 -327 219.5 -416.5t108.5 -89.5q25 0 49 16t84 85l15 -47l-95 -107q-157 -178 -194 -178q-51 0 -181 270t-229 443q-52 -122 -96 -253l-33 -99 q-20 -61 -53 -177q-48 -35 -88 -67l-87 -73l-87 -73l-7 3q-3 3 -3 10q0 13 40 111l44 108q164 413 253 686t89 358q0 38 -16 60t-42 22q-19 0 -44 -12t-68 -43z" />
<glyph unicode="S" horiz-adv-x="1071" d="M872 965l-53 6q55 44 77 80t22 77q0 72 -62.5 115t-165.5 43q-155 0 -237 -61t-82 -176q0 -129 230 -244l65 -33q102 -54 141 -108t39 -136q0 -131 -83 -251.5t-265 -251.5q-60 -44 -138.5 -69.5t-150.5 -25.5q-102 0 -189.5 60.5t-87.5 103.5q0 46 63 168 q32 62 71 121.5t90 122.5l73 6q-54 -43 -91 -99q-34 -56 -34 -96q0 -71 80.5 -120.5t202.5 -49.5q164 0 237.5 52.5t73.5 171.5q0 66 -40 112.5t-177 112.5q-158 75 -211 137q-27 33 -40 69.5t-13 84.5q0 74 42 165t120 181q106 122 224 189t233 67q107 0 187.5 -69.5 t80.5 -127.5q0 -28 -68 -131t-164 -196z" />
<glyph unicode="T" horiz-adv-x="1331" d="M109 1235l44 34q204 158 261 224q107 -19 319 -87q111 -35 188 -53t127 -18q128 63 239 107q102 39 165 51l21 -23q-45 -131 -178.5 -220t-284.5 -89l-45 2l-63 8q-250 -147 -369 -310t-119 -357q0 -149 96 -264t246 -142q86 74 154 165q65 87 116 194l100 12 q-146 -239 -325 -393t-287 -154q-16 0 -37 9.5t-45 27.5q-119 90 -188.5 217.5t-69.5 255.5q0 177 164.5 364.5t499.5 387.5l-219 51q-118 28 -197 43.5t-111 15.5q-38 0 -81.5 -18t-94.5 -57z" />
<glyph unicode="U" horiz-adv-x="1432" d="M215 1245l192 130l114 75q76 47 93 47q27 0 42.5 -22t15.5 -60q0 -80 -153 -482l-46 -120l-66 -172q-124 -322 -124 -379q0 -29 11.5 -44t33.5 -15q49 0 172.5 122t249.5 308q46 67 89.5 145.5t86.5 171.5t91 211.5t95 247.5l112 44q122 48 136 50l6 -3l2 -7 q0 -11 -66 -157l-88 -197q-175 -399 -225.5 -565t-50.5 -287q0 -62 17.5 -93.5t50.5 -31.5q29 0 63.5 24t79.5 76l14 -37q-118 -134 -220.5 -211t-162.5 -77q-42 0 -61 34t-19 121q0 118 24 251.5t69 266.5l-7 4q-197 -298 -404.5 -487.5t-311.5 -189.5q-26 0 -41 15 q-13 16 -13 46q0 35 101 308l96 263q81 230 132.5 408t51.5 213q0 36 -12.5 53t-42.5 17q-13 0 -36 -10q-9 -4 -31 -15.5t-50 -28.5z" />
<glyph unicode="V" horiz-adv-x="1165" d="M117 1192l-2 45q229 154 311.5 204t101.5 50q22 0 33.5 -26.5t11.5 -78.5q0 -111 -27.5 -290.5t-78.5 -401.5l-34 -153l-25 -124q-9 -53 -14 -93.5t-5 -65.5q0 -35 15 -59q15 -21 42 -21q68 0 210.5 238.5t289.5 611.5q-12 15 -19 33t-7 41q0 28 9 66.5t27 82.5 q42 99 103.5 172.5t93.5 73.5q17 0 26 -15t9 -50q0 -45 -16 -103.5t-50 -138.5q15 -44 42 -72t77 -51l-81 -44q-109 -60 -150 -75q-205 -428 -422 -729t-293 -301q-40 0 -76.5 46t-36.5 106q0 30 22 133l23 121q29 167 48 287l34 223q25 183 25 260q0 75 -21.5 113t-66.5 38 q-21 0 -52.5 -12.5t-76.5 -40.5z" />
<glyph unicode="W" horiz-adv-x="1622" d="M94 1192l-4 39l43 29q338 225 367 225q20 0 31.5 -24t11.5 -70q0 -54 -18 -168t-56 -294l-37 -177l-61 -315q-21 -120 -21 -156q0 -40 12 -59t37 -19q52 0 145 147l32 50l4 7q213 332 264 453q18 92 27.5 166.5t9.5 116.5q0 80 -20 121q-18 42 -64 67l88 58 q156 102 178 102q24 0 38.5 -22t14.5 -62q0 -58 -20 -184t-82 -432l-37 -180q-66 -315 -66 -378q0 -26 15 -47q15 -18 39 -18q77 0 212.5 218.5t282.5 584.5q-31 32 -46 67q-13 37 -13 82q0 40 8 77.5t26 79.5q35 80 101 150q27 30 57 53q25 18 41 19q18 0 30.5 -26 t12.5 -68q0 -21 -3 -44.5t-11 -55.5q-15 -66 -41 -136q15 -42 44 -71t73 -47l-138 -82l-69 -39q-232 -482 -428 -747t-320 -265q-40 0 -59.5 26.5t-19.5 78.5q0 65 49.5 297t74.5 374q-272 -459 -395.5 -617.5t-191.5 -158.5q-43 0 -71 41q-26 41 -26 111q0 64 47 284 l44 213q31 168 52 319q9 72 14 124t5 88q0 72 -24.5 107.5t-73.5 35.5q-24 0 -49 -11q-15 -6 -29 -14t-37 -24z" />
<glyph unicode="X" horiz-adv-x="1479" d="M238 1202q143 139 249 217t150 78q75 0 105 -116t30 -484v-121l303 398q44 136 128.5 232.5t144.5 96.5q20 0 28 -8t8 -29q0 -28 -28.5 -75.5t-79.5 -104.5v-24q0 -66 23.5 -120t58.5 -75q-76 -31 -146 -66q-62 -32 -116 -67q-11 28 -19 59q-6 29 -6 62v14l-293 -360 q0 -155 15.5 -266.5t46.5 -191.5q54 -143 174 -175q77 68 131.5 152t89.5 188l102 18q-94 -223 -257.5 -374.5t-284.5 -151.5q-91 0 -140 152q-25 80 -40 198t-15 268l-243 -286q-115 -128 -203 -212q-181 -173 -256 -173q-42 0 -66.5 37.5t-24.5 101.5q0 134 62 252 t194 233l19 -20q-71 -69 -112.5 -162.5t-41.5 -183.5q0 -56 16 -85.5t48 -29.5q50 0 190 139q71 70 172 183l240 276q0 218 -11.5 365t-28.5 208q-29 111 -101 111q-37 0 -86 -29.5t-117 -91.5z" />
<glyph unicode="Y" horiz-adv-x="1280" d="M700 420q-107 -180 -211.5 -306t-169.5 -157q-14 -37 -21 -67q-3 -16 -5 -31.5t-2 -30.5q0 -33 9.5 -68.5t25.5 -62.5q97 59 186 228t195 493zM115 1262l73 53q267 192 310 192q28 0 40.5 -30.5t12.5 -108.5q0 -112 -20 -249t-63 -312q-83 -344 -83 -465 q0 -58 19.5 -91.5t54.5 -33.5q90 0 273.5 322t381.5 843l143 53l173 68q-47 -58 -96 -143q-53 -90 -144 -268q-72 -140 -146 -302l-157 -354l-95 -220l-70 -157q-27 -58 -46 -94q-31 -59 -90 -123q-28 -32 -65.5 -67.5t-84.5 -75.5q-77 -65 -130.5 -100t-76.5 -35 q-19 0 -34 28q-13 29 -13 74q0 32 6 63t20 67q26 68 89 163q-62 18 -91.5 58.5t-29.5 109.5q0 37 6 78.5t21 112.5l5 25q128 608 128 787q0 66 -23 101t-67 35q-27 0 -56 -10q-18 -6 -32 -11.5t-37 -17.5z" />
<glyph unicode="Z" horiz-adv-x="1204" d="M211 1120q132 157 254.5 265t157.5 108q24 0 165 -43t269 -68q53 52 105.5 81.5t88.5 29.5q18 0 28.5 -9.5t10.5 -27.5q0 -59 -81 -132t-191 -99l-848 -965l13 3l28 5q20 0 49 -11.5t92 -45.5q162 -90 242 -120t143 -30q25 0 43.5 4.5t36.5 12.5q33 45 52 91t28 95l86 12 q-78 -185 -198 -302t-220 -117q-103 0 -259 122l-40 31q-69 54 -111 75t-77 21h-4q-25 -36 -50 -64t-52 -52q-51 -43 -81 -43q-12 0 -22 11.5t-10 29.5q0 79 69.5 156.5t180.5 119.5l817 973q-73 0 -211 24.5t-211 24.5l-49 -3l-56 -9q-22 -19 -42 -52l-20 -38l-24 -49z" />
<glyph unicode="[" horiz-adv-x="578" d="M492 1475l35 -3l122 -6l138 6l44 3l-24 -70l-195 8l-174 -487l-173 -462l-114 -293l-115 -285l-116 -279l199 6l-27 -68q-13 0 -39 1t-40 1h-103h-77q-13 0 -40.5 -1t-42.5 -1l431 1104l118 310l104 275z" />
<glyph unicode="\" horiz-adv-x="768" d="M133 1507h76l541 -1769h-74z" />
<glyph unicode="]" horiz-adv-x="578" d="M-68 -455l-30 2l-129 7l-138 -6l-45 -3l27 68l195 -6l117 329l117 318l116 308q169 443 342 851l-199 -6l27 67l79 -1h103h77q13 0 40.5 1t42.5 1l-160 -408l-147 -376l-134 -346l-117 -307l-100 -267z" />
<glyph unicode="^" horiz-adv-x="2048" d="M926 1462h194l512 -565h-98l-512 420l-514 -420h-96z" />
<glyph unicode="_" horiz-adv-x="1024" d="M0 -340h1024v-143h-1024v143z" />
<glyph unicode="`" horiz-adv-x="1024" d="M455 1473l219 -41l190 -277l-149 29z" />
<glyph unicode="a" d="M479 780q-13 45 -44 75t-62 30q-18 0 -48.5 -27.5t-66.5 -81.5q-79 -119 -140 -289q-57 -165 -57 -262q0 -37 9.5 -57.5t27.5 -20.5q36 0 113 85.5t151 216.5q18 31 70 153.5t94 202.5l-4 6zM590 195l6 -45q-80 -91 -163 -147t-128 -56q-25 0 -40 19q-13 20 -13 54 q0 54 23.5 136.5t72.5 189.5l-8 2q-135 -184 -256 -294.5t-184 -110.5q-33 0 -48.5 28t-15.5 84q0 94 37 213t104 246q60 113 125.5 198t137.5 143t163.5 101t124.5 43q24 0 56 -25.5t51 -64.5q25 10 57 32t39 24l8 -3q4 -5 4 -8q0 -11 -44.5 -108t-77.5 -178 q-39 -93 -66 -166t-50 -144q-38 -125 -38 -186q0 -14 1 -19.5t8 -16.5t22 -11q17 0 40.5 18t51.5 52z" />
<glyph unicode="b" d="M272 76q107 143 171.5 316t64.5 304q0 57 -17.5 87t-50.5 30q-28 0 -78 -43q-46 -40 -92 -108q-22 -35 -50.5 -103.5t-68.5 -178.5l-1 -4q-35 -97 -35 -159t42 -103q43 -38 115 -38zM326 1356q57 19 115 46q38 17 60 28q28 14 64 34q-67 -142 -149 -338 q-71 -173 -148 -387l6 -4q121 122 213 187t144 65q32 0 52 -33q19 -35 19 -94q0 -153 -66.5 -325t-186.5 -328q-100 -129 -191.5 -198.5t-159.5 -69.5q-73 0 -126.5 55t-53.5 131q0 86 155 499.5t253 731.5z" />
<glyph unicode="c" horiz-adv-x="616" d="M313 262l93 19q-84 -141 -204.5 -236.5t-199.5 -95.5q-54 0 -88.5 53t-34.5 141q0 172 87.5 351.5t250.5 336.5q73 71 189.5 123t175.5 52q13 0 22 -12q4 -6 6 -13t2 -18q0 -33 -22 -101.5t-62 -153.5l-40 -17q-89 -38 -138 -64q30 51 48 102t18 90q0 27 -11 43.5 t-30 16.5q-13 0 -23.5 -4t-24.5 -16q-26 -21 -57 -62q-73 -100 -129.5 -265t-56.5 -274q0 -73 27 -114.5t75 -41.5h17q32 23 61 66q26 39 49 94z" />
<glyph unicode="d" horiz-adv-x="862" d="M477 768q-23 52 -52 81.5t-56 29.5q-30 0 -76.5 -63.5t-105 -187t-95.5 -242t-37 -185.5q0 -26 10.5 -40t30.5 -14q63 0 194.5 185t239.5 456l-4 7zM950 1464l-198 -517l-134 -376q-98 -296 -98 -389q0 -23 8 -35t23 -12t35 11t41 30l2 -41q-85 -91 -161 -142.5 t-126 -51.5q-24 0 -37.5 17.5t-13.5 49.5q0 52 28 155q14 55 33 114t47 133l-8 4q-142 -213 -272.5 -339t-206.5 -126q-36 0 -55 25t-19 73q0 64 17 139.5t54 170.5q69 185 177 331q96 129 233 222.5t205 93.5q17 0 34 -12q17 -10 42 -42q12 67 58 205l30 97l35 116 q54 14 109 37q36 15 59 26.5t59 32.5z" />
<glyph unicode="e" horiz-adv-x="616" d="M166 627l38 -11l48 -4l18 1l34 4q47 37 76.5 86t29.5 88q0 29 -15.5 49t-40.5 20l-27 -6l-5 -2q-56 -46 -94 -100.5t-62 -124.5zM340 313l88 6q-54 -151 -185 -271t-216 -120q-63 0 -105.5 57.5t-42.5 147.5q0 140 64.5 300.5t171.5 287.5q102 119 221.5 192.5 t210.5 73.5q36 0 58 -20t22 -52q0 -47 -42.5 -112t-115.5 -123q-91 -72 -182 -116q-47 -22 -87.5 -34t-74.5 -12q-24 -58 -35.5 -117.5t-11.5 -124.5q0 -89 33 -135.5t94 -46.5h17q7 0 11 2q35 34 61.5 89t45.5 128z" />
<glyph unicode="f" horiz-adv-x="569" d="M494 651l-97 -112l-131 2l-27 -95q-156 -545 -221 -659q-69 -126 -144 -203.5t-126 -77.5q-23 0 -38 31t-15 84q0 39 10 80q5 24 11 41.5t18 42.5l37 22l-8 -36l-3 -23q0 -36 12.5 -64.5t26.5 -29.5q32 0 116 239q79 231 187 642l-96 2l129 133q58 217 113 348t123 219 q76 98 160.5 162.5t127.5 64.5q25 0 43.5 -21.5t18.5 -56.5q0 -38 -25.5 -94t-72.5 -121l-17 7v4q0 46 -29 75q-27 29 -77 33v-4q0 -11 -76.5 -218t-132.5 -421z" />
<glyph unicode="g" horiz-adv-x="768" d="M469 803q-14 44 -33.5 66t-44.5 22q-22 0 -57 -35t-76 -100q-80 -130 -132 -283.5t-52 -241.5q0 -29 9 -47q4 -6 7 -9q8 -7 21 -7q73 0 182.5 168.5t191.5 433.5l43 53l-2 13zM639 918l33 30q42 39 59 39l7 -4q3 -3 3 -8q0 -7 -55 -144l-104 -272l-63 -175l-73 -212 q-75 -228 -102 -276q-31 -62 -120 -155.5t-204 -180.5q-33 -25 -65.5 -39.5t-54.5 -14.5q-48 0 -86.5 36t-38.5 85q0 55 34 105q17 26 49.5 58.5t84.5 76.5l26 -10l-23 -57q-7 -28 -7 -46q0 -47 24.5 -79t63.5 -37q48 28 121 196q70 163 151 438h-4q-124 -156 -223.5 -243.5 t-149.5 -87.5q-32 0 -49.5 34t-17.5 101q0 99 51.5 251t138.5 291q106 173 246.5 289.5t228.5 116.5q27 0 54 -23.5t65 -82.5z" />
<glyph unicode="h" horiz-adv-x="938" d="M-170 -72l421 1065l70 184q49 131 76 209q38 10 50 14t50 18l124 46l-112 -281l-100 -248l-89 -216l-76 -182l-64 -150l-53 -119l12 -6q68 109 133 201.5t126 167.5q124 154 251 268l48 27q135 75 157 75q17 0 29 -15t12 -40q0 -36 -142 -354l-44 -98 q-61 -133 -90 -211.5t-29 -100.5q0 -24 16 -38.5t45 -14.5l21 2q8 0 12 2l-12 -31l-219 -126q-60 -33 -72 -33q-20 0 -34 15q-3 4 -8 13.5t-5 24.5q0 16 4 33t16 48q19 52 84 193l89 185q96 197 96 235q0 17 -8 26q-6 9 -21 9q-60 0 -220 -202t-317 -498q-51 -15 -108 -39 t-119 -58z" />
<glyph unicode="i" horiz-adv-x="455" d="M229 1202q44 37 48 41q18 20 27 29q32 34 71 82q14 -4 51 -13l53 -13q20 -3 49 -6t49 -3q-27 -66 -90 -108t-133 -42q-26 0 -36 1.5t-28 6.5q-31 8 -61 25zM178 881q84 39 153 76l77 40q6 -1 7 -2l3 -6l-20 -45q-22 -50 -63 -135q-81 -174 -153 -363l-79 -218 q-17 -59 -17 -85q0 -16 7.5 -27t19.5 -12q21 0 53 38t70 110l-31 -146l-109 -82q-49 -34 -81 -53q-65 -41 -93 -41q-25 0 -42 23.5t-17 60.5q0 62 121 352q117 283 194 515z" />
<glyph unicode="j" horiz-adv-x="446" d="M195 911q52 19 227 99l12 6q-133 -329 -284 -743q-142 -395 -168 -437q-64 -97 -169 -189.5t-137 -92.5q-24 0 -39.5 31t-15.5 77q0 38 11 77q5 19 13 41.5t19 43.5l35 35l-9 -48l-3 -47q0 -29 7.5 -48.5t24.5 -34.5q50 41 183 383q68 175 138 380zM221 1204l27 24 q23 21 45 44q35 36 72 84q42 -17 91 -27t99 -10h16q-38 -69 -99.5 -108.5t-129.5 -39.5q-21 0 -31 1t-30 7q-32 10 -60 25z" />
<glyph unicode="k" d="M-197 -82l321 826q200 509 232 630l115 42l115 48l-102 -262l-83 -212l-65 -161q-76 -190 -150 -356h4q185 104 231 158.5t46 132.5v24q-3 17 -4.5 28t-2.5 20.5t-7 31.5l219 105q12 -20 19 -45.5t7 -55.5q0 -136 -340 -344l-30 -18q33 -190 99.5 -315t125.5 -125l17 4 q8 2 13 4.5t17 9.5l10 -25q-74 -63 -134.5 -100t-86.5 -37q-58 0 -124.5 136.5t-96.5 338.5l-8 -4l-87 -215l-50 -129l-98 -60z" />
<glyph unicode="l" horiz-adv-x="473" d="M348 1378q61 16 116 37t111 49l-112 -300l-145 -369q-199 -507 -199 -600q0 -11 1.5 -21.5t9.5 -21.5q12 -15 34 -15q13 0 29 8l51 31l12 -22l-73 -76q-149 -154 -189 -154q-41 0 -72 34.5t-31 82.5q0 89 176 532q88 223 158 424q67 193 123 381z" />
<glyph unicode="m" horiz-adv-x="1309" d="M-154 -51q140 364 215 607q34 114 52 197t18 132v14l-2 21l36 17q152 73 167 73q13 0 19.5 -8t6.5 -25q0 -61 -94 -312q-80 -213 -123 -343l17 -9q95 176 189 322t192 272l65 33q150 74 168 74q9 0 16 -7t9 -22q0 -30 -103 -284q-99 -245 -178 -480l16 -10l91 141 l232 347q100 143 173 231l78 43q86 48 98 49q11 0 18 -7t9 -20q0 -60 -117 -348l-12 -31l-58 -145q-24 -61 -41.5 -114t-26.5 -88.5t-9 -53.5q0 -29 11.5 -43t35.5 -14l21 3l26 9l6 -29q-132 -91 -211 -140q-69 -42 -88 -42q-21 0 -33 18t-12 50q0 58 92 266l43 98l46 112 l37 95q32 88 32 107q0 11 -4.5 17t-14.5 7q-30 0 -166.5 -197.5t-310.5 -498.5l-121 -45l-102 -39l87 238l68 176q115 304 115 354q0 12 -3 16t-17 6q-42 0 -171 -203t-261 -503l-109 -39z" />
<glyph unicode="n" horiz-adv-x="938" d="M47 0q-58 -6 -108 -19t-93 -32l54 151l77 199q189 492 189 645q56 15 127 42.5t84 27.5q9 0 13.5 -6t6.5 -21q0 -48 -102 -293l-62 -153l-54 -138q-35 -91 -46 -122l14 -5q46 81 95 155.5t109.5 153t131.5 160.5t154 168l179 83q42 18 56 18q10 0 15 -8q6 -6 6 -21 q0 -38 -122 -291l-17 -37q-73 -151 -122 -283q-44 -124 -44 -173q0 -31 12 -48.5t35 -17.5q11 0 24 4q15 3 27 10v-32l-99 -58q-174 -102 -198 -102q-22 0 -37.5 20t-15.5 52q0 40 31 124q16 45 42 105t68 148l53 112q74 157 74 184q0 15 -6 22t-20 9q-66 0 -225 -211 t-306 -522z" />
<glyph unicode="o" horiz-adv-x="739" d="M410 1020l39 -6q-166 -153 -267.5 -350.5t-101.5 -362.5q0 -83 36 -130.5t99 -47.5q20 0 40 5.5t42 18.5q87 138 141 306t54 282q0 51 -16 79t-46 28q-12 0 -23 -3.5t-22 -13.5l-12 15l235 198q34 0 58 -51q10 -23 16 -55t6 -72q0 -149 -70.5 -318t-195.5 -313 q-115 -132 -224.5 -213.5t-166.5 -81.5q-69 0 -110.5 58t-41.5 158q0 204 141 438t390 432z" />
<glyph unicode="p" horiz-adv-x="825" d="M197 408v-9q0 -104 32.5 -178t69.5 -74q16 0 36 19q20 17 44 53q41 60 76.5 134t66.5 161q60 171 60 270q0 31 -12 48.5t-33 17.5q-68 0 -170.5 -126t-169.5 -316zM-311 -446l149 389l121 321l94 254q119 327 129 393q69 31 118 59q60 33 108 64q-13 -60 -38 -135 t-61 -158l6 -4q128 129 243 205t175 76q30 0 49 -23.5t19 -64.5q0 -165 -90.5 -353.5t-259.5 -377.5q-87 -96 -178 -168t-111 -72q-14 0 -23 30q-6 29 -6 99q0 13 1 40.5t1 42.5l6 85l-10 6q-31 -74 -99 -274.5t-110 -311.5l-48 -22q-31 -14 -58 -28l-60 -33z" />
<glyph unicode="q" horiz-adv-x="768" d="M510 784q-10 27 -21 46.5t-23 31.5q-23 25 -52 25q-31 0 -66.5 -33t-85.5 -113q-86 -136 -138 -278t-52 -240q0 -33 9 -48t30 -15q63 0 162 127t200 346l5 10q15 34 37 76t46 80l-6 8zM774 1008l19 -9l-140 -340l-121 -296l-101 -254q-134 -348 -134 -385q0 -15 6.5 -22 t22.5 -9q14 0 27.5 3.5t33.5 12.5l-6 -35q-104 -77 -192 -126.5t-121 -49.5q-14 0 -20.5 8t-8.5 25q0 29 112.5 293t194.5 477l-10 2q-115 -164 -239 -267.5t-183 -103.5q-33 0 -49.5 31t-16.5 92q0 144 73 323.5t200 338.5q101 126 227.5 207.5t210.5 81.5q31 0 55 -20 t50 -68z" />
<glyph unicode="r" horiz-adv-x="645" d="M78 858l80 48l66 38q50 27 67 29q15 0 26 -18q9 -18 9 -52q0 -42 -9.5 -95.5t-27.5 -119.5l8 -6q95 169 156 243t106 74q30 0 51 -23.5t21 -60.5q0 -53 -31 -128q-15 -36 -38 -80.5t-56 -96.5l-23 11l17 57l4 27q0 32 -12.5 49.5t-36.5 17.5q-40 0 -94 -60t-101 -163 q-55 -120 -93 -245t-38 -154q0 -19 9 -31q10 -10 26 -10q9 0 27 9l53 36l2 -43q-89 -81 -174 -134q-81 -49 -123 -49q-23 0 -40 18q-15 18 -15 48q0 24 25 99t114 304q53 136 78.5 227t25.5 140q0 32 -14 50q-11 17 -41 26z" />
<glyph unicode="s" horiz-adv-x="692" d="M496 621l-27 8q15 23 22 45t7 37q0 54 -45 90q-21 18 -49.5 27.5t-63.5 9.5q-60 0 -109 -35t-49 -80q0 -33 29 -68q28 -31 133 -104l18 -13q121 -85 121 -161q0 -40 -29.5 -95.5t-97.5 -136.5q-99 -117 -166.5 -160.5t-140.5 -43.5q-70 0 -121 35.5t-69 99.5 q17 33 37.5 64.5t48.5 65.5q26 34 54.5 67t66.5 73l24 -12q-24 -30 -36.5 -55t-12.5 -50q0 -48 38 -80q39 -30 103 -30q69 0 119.5 34.5t50.5 77.5q0 58 -136 149l-11 7q-85 56 -119.5 103t-34.5 102q0 38 21 80.5t67 99.5q82 99 176 157t166 58q66 0 119 -36.5t53 -76.5 q0 -15 -38 -75l-47 -75z" />
<glyph unicode="t" horiz-adv-x="588" d="M326 1192q51 20 103 45.5t110 60.5q-21 -69 -54 -157q-26 -73 -75 -197h219l-123 -90l-129 2q-25 -83 -57 -174t-77 -206q-85 -223 -85 -275q0 -30 9 -50q9 -16 29 -22q39 36 70.5 76.5t59.5 91.5l28 -47q-102 -150 -192.5 -236t-145.5 -86q-35 0 -60.5 39t-25.5 99 q0 80 111 361l35 87l35 91q71 183 71 200q0 19 -20 39q-18 21 -60 45l76 57l76 -4q12 65 40 148z" />
<glyph unicode="u" horiz-adv-x="901" d="M678 944l90 18l84 21l6 -6l-134 -307l-102 -247q-81 -207 -81 -255q0 -31 13.5 -46.5t43.5 -15.5h15q12 3 20 4t18 3q15 5 23 7v-30q-96 -71 -178 -115.5t-111 -44.5q-25 0 -43 21q-16 22 -16 55q0 64 30 167.5t88 234.5l-10 2q-161 -223 -288 -348t-197 -125 q-32 0 -49 17q-17 15 -17 48q0 28 17 82q16 61 47 133l37 92q76 189 113.5 302t37.5 153q0 21 -11.5 31t-33.5 10l-3 -1l-15 -1l-6 22q99 85 166.5 126.5t103.5 41.5q20 0 31.5 -13t11.5 -36q0 -31 -23 -103t-61 -163l-40 -98q-130 -319 -130 -363q0 -16 5.5 -23.5 t21.5 -9.5q74 0 237.5 221t288.5 539z" />
<glyph unicode="v" horiz-adv-x="702" d="M152 932q91 26 172 77l20 11q6 0 8 -2l2 -8q-3 -9 -6 -17t-17 -40l-42 -105q-75 -199 -101 -309.5t-26 -198.5q0 -75 12.5 -107t42.5 -32q25 0 60.5 33.5t80.5 99.5q78 111 130.5 242.5t52.5 193.5q0 39 -20 63.5t-64 38.5q62 41 105 73l91 71l32 -19l97 -57 q-89 -63 -150 -215l-24 -55q-137 -299 -305.5 -516t-241.5 -217q-45 0 -72.5 65.5t-27.5 179.5q0 159 48.5 352.5t142.5 397.5z" />
<glyph unicode="w" horiz-adv-x="1110" d="M100 928q54 17 105.5 37t102.5 46l26 11q5 -1 6 -2l2 -4l-12 -35l-19 -53q-58 -175 -93.5 -347t-35.5 -262q0 -34 8.5 -47.5t26.5 -13.5q72 0 166 195.5t121 459.5q71 28 131 64.5t67 38.5l8 -3l3 -5q0 -9 -11 -45q-81 -284 -81 -611q0 -49 6 -71t20 -23q18 0 56.5 52.5 t138.5 221.5q43 77 69.5 144t26.5 98q0 18 -4 30t-16 25q-18 21 -60 35l120 98l64 54q45 -18 77 -37l30 -18q5 -3 29 -21q-56 -41 -185 -263l-74 -126l-61 -98q-163 -260 -265.5 -392.5t-137.5 -132.5q-22 0 -30.5 10t-8.5 35q5 56 8.5 107t3.5 93q0 62 11 149l22 172l-8 2 q-64 -123 -129 -222.5t-137 -182.5q-140 -163 -203 -163q-16 0 -25.5 15.5t-9.5 44.5q0 53 62.5 363.5t88.5 576.5z" />
<glyph unicode="x" horiz-adv-x="758" d="M150 946l90 24q55 17 114 40q-46 -121 -71 -233t-25 -208l1 -53l5 -61q55 52 159 188q108 140 232 320l46 8q18 3 48 11l97 26q-39 -54 -97 -124l-131 -152l-156 -171l-181 -186q33 -154 84 -225.5t127 -71.5l24 2l41 8l2 -20q-93 -57 -176 -91t-117 -34q-33 0 -68.5 62 t-84.5 212q-85 -79 -174 -152q-85 -67 -140 -102h-86q69 42 161.5 120t215.5 198q-7 34 -12 66.5t-8 57.5t-5 53.5t-2 57.5q0 103 22 213t65 217z" />
<glyph unicode="y" horiz-adv-x="858" d="M57 827q122 105 185 148t90 43q22 0 36.5 -20t14.5 -52q0 -50 -63 -205l-29 -73l-1 -3q-161 -406 -161 -454q0 -15 6 -23t23 -10q75 0 225.5 216t278.5 542q71 28 133 58l67 30l7 -3l3 -5q0 -5 -9 -26.5t-29 -61.5q-154 -312 -262 -626l-28 -81q-114 -337 -216 -463 q-81 -99 -208.5 -171t-201.5 -72q-41 0 -67.5 29.5t-26.5 78.5q0 60 46 126.5t140 141.5l13 -6q-14 -31 -22 -64q-3 -16 -5 -29t-2 -25q0 -47 20.5 -79.5t59.5 -52.5q87 63 168.5 233t185.5 509l-10 2q-71 -93 -137 -166q-70 -77 -138 -137q-136 -121 -188 -121 q-21 0 -36 21.5t-15 58.5t15.5 92.5t55.5 157.5l81 205q31 79 52 140q35 105 35 146q0 17 -9 27t-28 10l-20 -2l-20 -6z" />
<glyph unicode="z" horiz-adv-x="750" d="M41 698q66 136 164.5 224t179.5 88q24 0 45 -4t59 -16q64 -20 142 -58q45 44 78 64t57 20q18 0 27.5 -7t11.5 -22q0 -36 -39.5 -75.5t-116.5 -75.5l-131 -159l-111 -131l-90 -103q-117 -132 -192 -201q33 -15 103 -72t122 -57q50 0 90 39t62 112l43 6q-51 -160 -130 -256 t-155 -96q-58 0 -141 76t-139 96q-58 -60 -99 -91.5t-63 -31.5q-9 0 -13 5q-3 2 -4 16q0 20 14.5 58t43.5 87q39 72 75 102.5t76 30.5l16 -1l30 -2q52 50 103 106q55 59 113 129l115 144l127 169l-23 -4l-28 -4q-33 0 -110.5 20.5t-125.5 20.5l-11 -1l-19 -1 q-15 -21 -31 -54l-10 -22q-9 -20 -17 -43z" />
<glyph unicode="{" horiz-adv-x="1024" d="M848 1516v-53q-134 0 -185 -54t-51 -211v-141q0 -228 -58.5 -308.5t-217.5 -113.5q158 -31 217 -114q29 -40 44 -117t15 -191v-141q0 -156 50.5 -209.5t185.5 -53.5v-53h-10q-220 0 -301.5 74t-81.5 272v207q0 161 -58.5 220.5t-218.5 74.5v64q77 0 132.5 20t86.5 53 q58 61 58 222v206q0 198 82 272.5t301 74.5h10z" />
<glyph unicode="|" horiz-adv-x="1024" d="M438 1565h150v-2048h-150v2048z" />
<glyph unicode="}" horiz-adv-x="1024" d="M176 1516h10q219 0 302 -74t83 -273v-206q0 -161 58 -222q30 -32 86.5 -52.5t132.5 -20.5v-64q-77 0 -132 -20t-87 -54q-58 -61 -58 -221v-207q0 -198 -82.5 -272t-302.5 -74h-10v53q136 0 186 53.5t50 209.5v141q0 226 58.5 307.5t217.5 114.5q-158 32 -217 113.5 t-59 308.5v141q0 157 -51 211t-185 54v53z" />
<glyph unicode="~" horiz-adv-x="1706" d="M1530 770v-156q-101 -70 -199 -107q-46 -16 -94.5 -25t-95.5 -9t-109 14t-147 44l-34 12l-15 5q-176 60 -273 60q-41 0 -85 -9t-90 -28q-90 -36 -210 -120v155q106 72 202 108t185 36q33 0 62.5 -3t64.5 -11q64 -12 164 -48l47 -17q159 -57 240 -57q87 0 179.5 37 t207.5 119z" />
<glyph unicode="&#xa1;" horiz-adv-x="721" d="M469 889l-299 -901l-215 -51l401 911zM653 1141l-198 -117l-64 78q-30 36 -63 69l184 109q39 -30 73 -64q30 -29 68 -75z" />
<glyph unicode="&#xa2;" horiz-adv-x="854" d="M473 805l-29 3l-32 1q-113 0 -160 -45.5t-47 -151.5q0 -60 27 -110t85 -92zM582 1079l92 21l-65 -166q43 -9 88.5 -27.5t90.5 -46.5l-88 -233l-26 8l2 20l2 13q0 38 -34 69.5t-93 46.5l-164 -411q29 -12 63 -18q37 -5 76 -5h31q12 3 26.5 5t34.5 12l-87 -174l-52 -11 l-49 -4l-62 3q-13 1 -28 4t-29 7l-53 -137l-94 -16l78 180q-87 45 -131.5 115t-44.5 162q0 159 139 295t327 153z" />
<glyph unicode="&#xa3;" horiz-adv-x="1118" d="M897 240h37q-30 -160 -94 -241t-156 -81q-19 0 -44.5 4t-55.5 13q-58 16 -160 57l-86 36q-141 60 -188 60l-15 -2q-14 0 -20 -2q-51 -72 -96 -114t-74 -42q-19 0 -26.5 6t-8.5 21q0 44 55.5 93.5t161.5 98.5q34 65 64 155t49 198l-92 -3q-20 0 -45.5 -1.5t-63.5 -5.5 l29 96q39 -5 78.5 -8.5t97.5 -3.5q44 218 77.5 302.5t88.5 145.5q76 85 209.5 149t238.5 64q67 0 131 -34.5t64 -55.5q0 -36 -43 -129t-113 -195l-49 -8l25 48q13 26 19 43q13 37 13 67q0 65 -67 115.5t-158 50.5q-63 0 -122 -142.5t-109 -420.5q20 0 66 2t48 2q25 0 40 1 t66 7l-32 -96l-96 7l-115 3q-17 -60 -70 -136t-155 -184l58 20l40 7q24 0 66.5 -12t104.5 -38l14 -6l192 -70q57 -18 82 -18q44 0 75 39.5t64 137.5z" />
<glyph unicode="&#xa4;" horiz-adv-x="1241" d="M623 1190q-126 0 -215 -89t-89 -214q0 -127 89 -216t215 -89q125 0 214 90t89 215t-89 214t-214 89zM162 1423l205 -204q56 41 121 63.5t133 22.5q71 0 133.5 -21.5t122.5 -64.5l204 204l82 -80l-205 -206q40 -53 61 -117t21 -135q0 -75 -20 -136.5t-62 -115.5l205 -205 l-82 -82l-204 205q-57 -42 -121 -64t-133 -22q-71 0 -136 21.5t-120 64.5l-205 -205l-82 82l207 205q-41 52 -62.5 116.5t-21.5 135.5q0 68 20.5 131t63.5 121l-207 206z" />
<glyph unicode="&#xa5;" horiz-adv-x="1118" d="M477 457h12l53 79l41 64h-122zM372 -39q-23 0 -50.5 -4t-58.5 -10q-52 -10 -113 -27l196 471h-407l18 66h385q-1 12 -2.5 26t-8.5 41l-14 76h-317l18 66h289l-28 183q-30 216 -93 216q-17 0 -43 -9q-13 -5 -25 -10.5t-32 -17.5l-8 14l59 49q162 132 195 132 q66 0 100 -341q10 -114 11 -121q5 -47 12 -95h178l164 236l190 263l103 33l116 29q-50 -36 -416 -495l-53 -66h314l-21 -66h-346l-60 -78l-53 -65h422l-20 -66h-453l-73 -213z" />
<glyph unicode="&#xa6;" horiz-adv-x="1024" d="M438 408h150v-758h-150v758zM438 1432h150v-758h-150v758z" />
<glyph unicode="&#xa7;" horiz-adv-x="1024" d="M581 314q71 18 112.5 65t41.5 106q0 98 -264 317l-84 70q-40 0 -73.5 -12.5t-58.5 -33.5q-48 -39 -48 -103q0 -122 367 -404zM1020 1423q-24 -93 -59.5 -171t-83.5 -140l-29 18q31 48 43 77.5t12 54.5q0 62 -64.5 102.5t-164.5 40.5q-129 0 -201 -56t-72 -155 q0 -65 39 -123.5t189 -175.5q161 -128 209 -192q45 -60 45 -125q0 -89 -66.5 -169t-187.5 -133q59 -46 87 -98q15 -27 22 -53t7 -59q0 -45 -14 -90q-12 -48 -33 -78q-87 -134 -187 -195t-226 -61q-102 0 -188 32t-152 97q9 78 48 162t105 171l41 -16q-37 -43 -54 -77 t-17 -62q0 -80 94 -145.5t221 -65.5q98 0 165.5 59.5t67.5 151.5q0 122 -248 310q-194 145 -248 216.5t-54 147.5q0 109 80.5 190.5t213.5 104.5q-40 40 -62 81q-19 41 -19 80q0 163 140 294.5t329 131.5q77 0 147 -20.5t125 -61.5z" />
<glyph unicode="&#xa8;" horiz-adv-x="1024" d="M735 1241l142 148q41 -17 86 -28q45 -9 98 -9q-25 -63 -83.5 -102.5t-125.5 -39.5q-20 0 -29.5 1t-27 6t-31.5 10.5t-29 13.5zM383 1241l139 148q39 -17 85.5 -27t99.5 -10q-25 -62 -83 -102t-124 -40q-20 0 -29.5 1t-27 6t-31.5 10.5t-29 13.5z" />
<glyph unicode="&#xa9;" horiz-adv-x="1683" d="M1122 1098h37l2 -316h-43q-32 136 -103 204.5t-177 68.5q-119 0 -179.5 -93.5t-60.5 -277.5q0 -185 66.5 -283t193.5 -98q86 0 153 43t128 133l39 -26q-59 -104 -147.5 -157.5t-199.5 -53.5q-172 0 -291.5 124t-119.5 304q0 183 118.5 307.5t290.5 124.5q74 0 149 -33 t81 -33q28 0 42.5 14.5t20.5 47.5zM844 1305q-124 0 -237 -48t-201.5 -138t-135.5 -203.5t-47 -237.5q0 -126 46.5 -239t135.5 -201t202 -135.5t235 -47.5q127 0 237 46q56 23 105 57t94 80q88 89 136 203.5t48 236.5t-48 240t-133 203t-201.5 134.5t-235.5 49.5zM844 1391 q138 0 269 -54.5t229.5 -152.5t154 -232t55.5 -274q0 -139 -53.5 -269.5t-155.5 -232.5q-97 -99 -227 -154t-274 -55q-143 0 -270 53.5t-230.5 155.5t-157 229t-53.5 273q0 143 53.5 270.5t154.5 230t232.5 157.5t272.5 55z" />
<glyph unicode="&#xaa;" horiz-adv-x="598" d="M361 1317q-13 31 -35.5 51.5t-44.5 20.5q-16 0 -37.5 -19.5t-48.5 -56.5q-61 -84 -105 -201q-22 -59 -32.5 -104t-10.5 -80q0 -26 6.5 -41t20.5 -15q25 0 85 61q29 29 56.5 65.5t56.5 84.5q13 22 52 108t71 142l-4 4zM442 907l4 -33q-58 -62 -120.5 -101.5t-96.5 -39.5 q-19 0 -31 13q-10 13 -10 38q0 39 19 97.5t55 130.5l-6 2q-103 -130 -194 -207.5t-138 -77.5q-23 0 -35 19.5t-12 60.5q0 66 27.5 149t79.5 172q47 82 96 140.5t101.5 99.5t122.5 70.5t93 29.5q18 0 42.5 -18.5t37.5 -44.5q11 4 21 9t23 14l28 16q5 -1 6 -2l2 -6 q0 -8 -34 -77l-58 -124q-53 -121 -86 -217q-29 -87 -29 -129q0 -15 6 -24t17 -9q13 0 30.5 11.5t38.5 37.5z" />
<glyph unicode="&#xab;" horiz-adv-x="811" d="M453 559q-7 -7 -11 -17.5t-6 -27.5q0 -30 41.5 -93.5t124.5 -160.5l-129 -123q-42 53 -77 101.5t-61.5 93t-39 73t-12.5 44.5q0 13 18.5 39.5t54.5 62.5l287 280l29 -30zM127 559q-7 -5 -11.5 -17t-6.5 -28q0 -30 42 -96q22 -33 51 -70l72 -88l-127 -123 q-85 106 -138.5 194t-53.5 118q0 14 18 39t56 63l288 280l29 -30z" />
<glyph unicode="&#xac;" horiz-adv-x="1706" d="M254 860h1198v-502h-137v363h-1061v139z" />
<glyph unicode="&#xad;" horiz-adv-x="545" d="M228 412l-87 7l-61 3q-15 0 -31.5 -1t-32.5 -4q-21 -2 -32 -4t-34 -9l-11 12l198 151l89 -8l75 -2h30q15 3 22 4q32 5 36 6q17 6 25 8l12 -12z" />
<glyph unicode="&#xae;" horiz-adv-x="1683" d="M738 721l28 -2h35q104 0 162.5 45.5t58.5 126.5q0 72 -50 116t-134 44q-50 0 -75.5 -17.5t-25.5 -52.5zM467 1094h397q144 0 231 -54t87 -141q0 -82 -66 -131t-219 -76q95 -27 144.5 -76t70.5 -131q1 -4 5 -26.5t6 -38.5q12 -88 57 -88q29 0 47 33q16 35 16 98h45v-19 q0 -85 -41 -129.5t-119 -44.5q-49 0 -84 15.5t-51 46.5q-10 19 -16 45.5t-6 64.5q0 70 -8 97q-18 71 -66.5 105t-130.5 34h-29v-246q0 -51 25.5 -72t93.5 -27v-44h-389v44q32 0 56.5 6.5t38.5 18.5q26 21 26 74v516q0 52 -26 73.5t-95 27.5v45zM844 1305q-124 0 -237 -48 t-201.5 -138t-135.5 -203.5t-47 -237.5q0 -126 46.5 -239t135 -201.5t201 -135.5t236.5 -47q127 0 237.5 46.5t198.5 137t135 203.5t47 236t-47 240.5t-132 202.5t-201.5 134.5t-235.5 49.5zM844 1391q142 0 273 -55.5t233 -157.5q94 -97 148 -230t54 -276q0 -140 -56 -271 t-161 -233q-99 -99 -227.5 -150t-276.5 -51q-133 0 -262 54q-64 28 -120 65t-109 90q-102 101 -155.5 229.5t-53.5 272.5q0 143 53 271t153 230t233 157t274 55z" />
<glyph unicode="&#xaf;" horiz-adv-x="1024" d="M465 1386h539l-31 -139h-539z" />
<glyph unicode="&#xb0;" horiz-adv-x="674" d="M338 1362q-82 0 -138.5 -56t-56.5 -137q0 -80 57 -138t138 -58q80 0 136 57.5t56 138.5t-55 137t-137 56zM338 1456q117 0 202 -85t85 -204q0 -117 -84.5 -201.5t-204.5 -84.5q-121 0 -204 83t-83 203t85 204.5t204 84.5z" />
<glyph unicode="&#xb1;" horiz-adv-x="1706" d="M254 170h1198v-141h-1198v141zM782 1192h142v-340h528v-139h-528v-340h-142v340h-528v139h528v340z" />
<glyph unicode="&#xb2;" horiz-adv-x="737" d="M551 586l18 -4l-141 -152l-387 41l-135 -39l-6 12l25 27q69 71 102 111l51 -7q184 85 304 203t120 215q0 63 -42.5 102.5t-111.5 39.5q-77 0 -96 -59q-25 -78 -58.5 -127.5t-54.5 -49.5q-7 0 -11.5 11.5t-5.5 17.5t-1 22q0 107 103.5 178.5t258.5 71.5q85 0 133 -41 t48 -110q0 -102 -133.5 -226t-385.5 -252l209 -18q16 0 24 -2h34q33 0 44.5 1.5t31.5 6.5q35 9 63 27z" />
<glyph unicode="&#xb3;" horiz-adv-x="737" d="M285 883h16q24 0 35.5 -1.5t17.5 -2.5t19 -5q71 30 106 68t35 82q0 42 -38.5 70t-98.5 28l-40 -3q-16 -3 -32 -9q-18 -73 -50 -125.5t-50 -52.5q-6 0 -11.5 11.5t-5.5 27.5q0 92 93 159.5t217 67.5q72 0 119 -33.5t47 -85.5q0 -66 -66.5 -122t-191.5 -95 q63 -18 100 -60.5t37 -92.5q0 -49 -25.5 -91.5t-84.5 -91.5t-127.5 -78.5t-133.5 -29.5q-69 0 -127.5 35.5t-58.5 64.5q0 9 7 13l21 4q25 0 106 -25t130 -25q75 0 128.5 40.5t53.5 97.5q0 63 -87 114q-47 28 -100.5 44t-119.5 16z" />
<glyph unicode="&#xb4;" horiz-adv-x="1024" d="M543 1155l207 266l221 27l-297 -277z" />
<glyph unicode="&#xb5;" horiz-adv-x="1169" d="M166 195q-32 -137 -64 -355q-36 -260 -116 -260q-41 0 -64.5 25t-23.5 69q0 45 70 277q66 222 110 422l108 512h168l-100 -475l-14 -75l-4 -59q0 -69 41 -109q43 -38 120 -38q95 0 153 54t83 173l112 529h173l-115 -532l-14 -76l-5 -52q0 -48 27 -74t76 -26q44 0 80 24.5 t59 69.5q13 28 28.5 78.5t37.5 50.5q10 0 15 -7.5t7 -21.5q0 -18 -3 -38.5t-11 -49.5q-13 -57 -35 -100q-39 -78 -92.5 -117t-122.5 -39q-81 0 -126 55q-22 27 -33 64.5t-11 89.5v13q-51 -113 -122.5 -167.5t-172.5 -54.5q-95 0 -150 55.5t-69 164.5z" />
<glyph unicode="&#xb6;" horiz-adv-x="1024" d="M958 1479v-86h-120v-1393h-111v1393h-176v-1393h-113v782q-83 0 -150.5 26.5t-120.5 75.5q-101 95 -101 246q0 156 107.5 252.5t285.5 96.5h499z" />
<glyph unicode="&#xb8;" horiz-adv-x="1024" d="M319 0h64l-90 -123l16 3l43 5q61 0 102.5 -29.5t41.5 -68.5q0 -65 -100 -139t-197 -74q-29 0 -58 10q-16 5 -29 11.5t-28 17.5l39 55q22 -17 52 -28q30 -9 69 -9q50 0 90 26q41 24 41 52t-40 53q-40 23 -95 23q-22 0 -30 -1.5t-13.5 -3t-12.5 -5.5l-20 14z" />
<glyph unicode="&#xb9;" horiz-adv-x="739" d="M127 416l187 451q78 195 100 261q-14 -6 -41.5 -16t-46.5 -16q-40 -11 -86 -16l4 34q91 16 181 51q46 17 86.5 36t78.5 44l-242 -612l-51 -146l-8 -24q-29 -6 -41 -9t-38 -11q-20 -5 -40 -12z" />
<glyph unicode="&#xba;" horiz-adv-x="555" d="M307 1485l29 -4q-125 -107 -201 -244t-76 -256q0 -56 27 -92q27 -33 76 -33q14 0 28 3.5t33 12.5q65 99 105.5 216t40.5 196q0 35 -11.5 55.5t-33.5 20.5l-17 -3l-18 -9l-8 10l176 139q26 -3 43 -36q16 -35 16 -89q0 -104 -53 -223t-146 -219q-85 -91 -168 -148t-126 -57 q-51 0 -82 41t-31 108q0 144 105.5 308t291.5 303z" />
<glyph unicode="&#xbb;" horiz-adv-x="811" d="M174 412q5 5 11 19q3 8 5 24q0 32 -41 96.5t-122 159.5l127 120q81 -101 137 -193q53 -88 53 -118q0 -15 -18.5 -40.5t-53.5 -59.5l-288 -283l-29 33zM502 412q5 5 11 19q3 8 5 24q0 32 -41.5 97.5t-122.5 158.5l127 120q42 -53 77 -101.5t61 -91.5q53 -88 53 -118 q0 -14 -19 -40.5t-55 -59.5l-287 -283l-28 33z" />
<glyph unicode="&#xbc;" horiz-adv-x="1751" d="M1231 -45l125 266h-215l-47 -3l-90 -3l382 307l52 44l41 36q34 31 62 62q43 5 78 13t71 19l-176 -393q21 0 33 -2h48l39 1l54 1l-58 -56l-31 -34l-41 1l-81 5l-96 -241q-18 0 -33.5 -2t-45.5 -7l-40 -7q-10 -2 -31 -7zM1389 301l127 289l-51 -44l-34 -28l-260 -211z M362 -66l955 1299h69l-952 -1299h-72zM121 467l96 225l85 203q75 184 91 235q-45 -18 -85 -30q-33 -9 -81 -14l4 30q97 19 179.5 50t152.5 75l-231 -573l-29 -73l-29 -85q-20 -4 -36 -8l-46 -12q-30 -8 -71 -23z" />
<glyph unicode="&#xbd;" horiz-adv-x="1751" d="M1573 117l16 -4l-133 -142l-369 39l-131 -37l-6 11l77 78l44 51l51 -4q180 79 292 188.5t112 200.5q0 57 -41 94q-20 18 -47 27.5t-60 9.5q-71 0 -91 -54q-24 -73 -56.5 -120t-50.5 -47q-7 0 -13 13l-4 36q0 99 99.5 166t244.5 67q81 0 126.5 -38t45.5 -103 q0 -96 -126.5 -210.5t-368.5 -236.5l200 -16q16 0 24 -2h32q30 0 41.5 1.5t30.5 6.5q33 8 61 25zM362 -66l955 1299h69l-952 -1299h-72zM121 467l96 225l85 203q75 184 91 235q-45 -18 -85 -30q-33 -9 -81 -14l4 30q97 19 179.5 50t152.5 75l-231 -573l-29 -73l-29 -85 q-20 -4 -36 -8l-46 -12q-30 -8 -71 -23z" />
<glyph unicode="&#xbe;" horiz-adv-x="1751" d="M1231 -45l125 266h-215l-47 -3l-90 -3l382 307l52 44l41 36q34 31 62 62q43 5 78 13t71 19l-176 -393q21 0 33 -2h48l39 1l54 1l-58 -56l-31 -34l-41 1l-81 5l-96 -241q-18 0 -33.5 -2t-45.5 -7l-40 -7q-10 -2 -31 -7zM1389 301l127 289l-51 -44l-34 -28l-260 -211z M362 -66l955 1299h69l-952 -1299h-72zM270 903h17l27 -2l40 -6q66 27 100.5 62.5t34.5 76.5q0 38 -36 65q-36 25 -93 25l-42 -3q-16 -2 -27 -7q-18 -67 -47.5 -116.5t-46.5 -49.5q-7 0 -13 9l-4 26q0 85 89 149t206 64q70 0 114 -31t44 -80q0 -62 -63 -114t-183 -88 q59 -18 95 -57t36 -87q0 -43 -24 -83t-81.5 -87t-122 -74.5t-124.5 -27.5q-65 0 -121.5 33t-56.5 61q0 7 5 11t19 6q22 0 99.5 -24t128.5 -24q71 0 122.5 38t51.5 89q0 62 -83 109q-43 25 -96 40t-116 15z" />
<glyph unicode="&#xbf;" horiz-adv-x="995" d="M870 1110l-198 -115l-48 57l-79 89l184 110l37 -31l35 -34q38 -36 69 -76zM610 903q12 -13 29 -34q13 -15 30 -38q30 -43 54 -86q-288 -156 -423.5 -279.5t-135.5 -232.5q0 -72 50.5 -115.5t133.5 -43.5q54 0 103.5 20.5t83.5 57.5q0 67 12 123.5t36 115.5q42 103 81 103 q15 0 26.5 -30t11.5 -75q0 -55 -18 -107.5t-55 -99.5q-81 -103 -214.5 -174t-244.5 -71q-99 0 -160 53.5t-61 142.5q0 128 112.5 241t436.5 294l-39 61l-41 62z" />
<glyph unicode="&#xc0;" horiz-adv-x="1290" d="M496 621q57 -12 102 -18l82 -5h12l27 2q0 56 8 127l18 140q18 159 43 331q-28 -67 -60.5 -137.5t-70.5 -144.5q-78 -154 -161 -295zM815 1449l121 43l106 42q-58 -186 -96 -417l-24 -158q-15 -107 -22 -184.5t-7 -172.5l67 3q17 0 50 5l41 6l-71 -47q-34 -21 -71 -37 l-26 -6l-7 -111l-2 -83q0 -76 11.5 -104.5t38.5 -28.5q26 0 58 29.5t69 86.5l10 -41q-148 -187 -216 -251t-108 -64q-30 0 -50.5 35.5t-20.5 93.5q0 43 10 149q5 52 11.5 110t16.5 140l-62 -5l-60 -1l-79 1l-87 5q-231 -374 -376 -539t-239 -165q-57 0 -90 36.5t-33 100.5 q0 98 60 218q57 115 174 245l41 4q-69 -87 -107.5 -165t-38.5 -134q0 -42 20.5 -66t55.5 -24q71 0 177.5 108.5t297.5 384.5q-15 0 -28 0.5t-53 4.5q-20 0 -29 1l-51 9q73 34 132 67q69 39 126 76q166 281 262 492q48 107 73 183t25 125zM760 1971l219 -41l190 -277l-149 29 z" />
<glyph unicode="&#xc1;" horiz-adv-x="1290" d="M496 621q57 -12 102 -18l82 -5h12l27 2q0 56 8 127l18 140q18 159 43 331q-28 -67 -60.5 -137.5t-70.5 -144.5q-78 -154 -161 -295zM815 1449l121 43l106 42q-58 -186 -96 -417l-24 -158q-15 -107 -22 -184.5t-7 -172.5l67 3q17 0 50 5l41 6l-71 -47q-34 -21 -71 -37 l-26 -6l-7 -111l-2 -83q0 -76 11.5 -104.5t38.5 -28.5q26 0 58 29.5t69 86.5l10 -41q-148 -187 -216 -251t-108 -64q-30 0 -50.5 35.5t-20.5 93.5q0 43 10 149q5 52 11.5 110t16.5 140l-62 -5l-60 -1l-79 1l-87 5q-231 -374 -376 -539t-239 -165q-57 0 -90 36.5t-33 100.5 q0 98 60 218q57 115 174 245l41 4q-69 -87 -107.5 -165t-38.5 -134q0 -42 20.5 -66t55.5 -24q71 0 177.5 108.5t297.5 384.5q-15 0 -28 0.5t-53 4.5q-20 0 -29 1l-51 9q73 34 132 67q69 39 126 76q166 281 262 492q48 107 73 183t25 125zM848 1653l207 266l221 27l-297 -277 z" />
<glyph unicode="&#xc2;" horiz-adv-x="1290" d="M496 621q57 -12 102 -18l82 -5h12l27 2q0 56 8 127l18 140q18 159 43 331q-28 -67 -60.5 -137.5t-70.5 -144.5q-78 -154 -161 -295zM815 1449l121 43l106 42q-58 -186 -96 -417l-24 -158q-15 -107 -22 -184.5t-7 -172.5l67 3q17 0 50 5l41 6l-71 -47q-34 -21 -71 -37 l-26 -6l-7 -111l-2 -83q0 -76 11.5 -104.5t38.5 -28.5q26 0 58 29.5t69 86.5l10 -41q-148 -187 -216 -251t-108 -64q-30 0 -50.5 35.5t-20.5 93.5q0 43 10 149q5 52 11.5 110t16.5 140l-62 -5l-60 -1l-79 1l-87 5q-231 -374 -376 -539t-239 -165q-57 0 -90 36.5t-33 100.5 q0 98 60 218q57 115 174 245l41 4q-69 -87 -107.5 -165t-38.5 -134q0 -42 20.5 -66t55.5 -24q71 0 177.5 108.5t297.5 384.5q-15 0 -28 0.5t-53 4.5q-20 0 -29 1l-51 9q73 34 132 67q69 39 126 76q166 281 262 492q48 107 73 183t25 125zM993 2003h129l148 -303l-80 -47 l-144 242l-274 -242l-94 49z" />
<glyph unicode="&#xc3;" horiz-adv-x="1290" d="M496 621q57 -12 102 -18l82 -5h12l27 2q0 56 8 127l18 140q18 159 43 331q-28 -67 -60.5 -137.5t-70.5 -144.5q-78 -154 -161 -295zM815 1449l121 43l106 42q-58 -186 -96 -417l-24 -158q-15 -107 -22 -184.5t-7 -172.5l67 3q17 0 50 5l41 6l-71 -47q-34 -21 -71 -37 l-26 -6l-7 -111l-2 -83q0 -76 11.5 -104.5t38.5 -28.5q26 0 58 29.5t69 86.5l10 -41q-148 -187 -216 -251t-108 -64q-30 0 -50.5 35.5t-20.5 93.5q0 43 10 149q5 52 11.5 110t16.5 140l-62 -5l-60 -1l-79 1l-87 5q-231 -374 -376 -539t-239 -165q-57 0 -90 36.5t-33 100.5 q0 98 60 218q57 115 174 245l41 4q-69 -87 -107.5 -165t-38.5 -134q0 -42 20.5 -66t55.5 -24q71 0 177.5 108.5t297.5 384.5q-15 0 -28 0.5t-53 4.5q-20 0 -29 1l-51 9q73 34 132 67q69 39 126 76q166 281 262 492q48 107 73 183t25 125zM1282 1932l37 -15 q-24 -52 -47.5 -89.5t-44.5 -57.5q-43 -41 -99 -41h-15h-12q-8 2 -13.5 2.5t-13 1.5t-19.5 6l-113 33l-35 9l-24 3q-28 0 -53 -18t-56 -62l-41 21q47 92 93 137t91 45l22 -3l35 -7l130 -35l38 -8l19 -2q37 0 67 20t54 60z" />
<glyph unicode="&#xc4;" horiz-adv-x="1290" d="M496 621q57 -12 102 -18l82 -5h12l27 2q0 56 8 127l18 140q18 159 43 331q-28 -67 -60.5 -137.5t-70.5 -144.5q-78 -154 -161 -295zM815 1449l121 43l106 42q-58 -186 -96 -417l-24 -158q-15 -107 -22 -184.5t-7 -172.5l67 3q17 0 50 5l41 6l-71 -47q-34 -21 -71 -37 l-26 -6l-7 -111l-2 -83q0 -76 11.5 -104.5t38.5 -28.5q26 0 58 29.5t69 86.5l10 -41q-148 -187 -216 -251t-108 -64q-30 0 -50.5 35.5t-20.5 93.5q0 43 10 149q5 52 11.5 110t16.5 140l-62 -5l-60 -1l-79 1l-87 5q-231 -374 -376 -539t-239 -165q-57 0 -90 36.5t-33 100.5 q0 98 60 218q57 115 174 245l41 4q-69 -87 -107.5 -165t-38.5 -134q0 -42 20.5 -66t55.5 -24q71 0 177.5 108.5t297.5 384.5q-15 0 -28 0.5t-53 4.5q-20 0 -29 1l-51 9q73 34 132 67q69 39 126 76q166 281 262 492q48 107 73 183t25 125zM1040 1739l142 148q41 -17 86 -28 q45 -9 98 -9q-25 -63 -83.5 -102.5t-125.5 -39.5q-20 0 -29.5 1t-27 6t-31.5 10.5t-29 13.5zM688 1739l139 148q39 -17 85.5 -27t99.5 -10q-25 -62 -83 -102t-124 -40q-20 0 -29.5 1t-27 6t-31.5 10.5t-29 13.5z" />
<glyph unicode="&#xc5;" horiz-adv-x="1290" d="M985 1888q-47 0 -85 -36.5t-38 -84.5q0 -50 37 -87.5t86 -37.5q51 0 87 36t36 89q0 50 -36.5 85.5t-86.5 35.5zM985 1972q83 0 144 -60t61 -145q0 -83 -60 -144.5t-145 -61.5q-83 0 -144 60t-61 146q0 83 60 144t145 61zM496 621q57 -12 102 -18l82 -5h12l27 2 q0 56 8 127l18 140q18 159 43 331q-28 -67 -60.5 -137.5t-70.5 -144.5q-78 -154 -161 -295zM815 1440l119 37q30 10 55.5 19.5t52.5 21.5q-59 -175 -96 -398q-14 -83 -24 -156q-15 -106 -22 -185t-7 -177l67 3q16 0 50 5l41 6l-71 -47q-34 -21 -71 -37l-26 -6l-7 -111 l-2 -83q0 -76 11.5 -104.5t38.5 -28.5q26 0 58 29.5t69 86.5l10 -41q-148 -187 -216 -251t-108 -64q-30 0 -50.5 35.5t-20.5 93.5q0 43 10 149q5 52 11.5 110t16.5 140l-62 -5l-60 -1l-79 1l-87 5q-231 -374 -376 -539t-239 -165q-57 0 -90 36.5t-33 100.5q0 98 60 218 q57 115 174 245l41 4q-69 -87 -107.5 -165t-38.5 -134q0 -42 20.5 -66t55.5 -24q71 0 177.5 108.5t297.5 384.5q-15 0 -28 0.5t-53 4.5q-20 0 -29 1l-51 9q73 34 132 67q69 39 126 76q171 289 262 491q49 108 73.5 179.5t24.5 120.5z" />
<glyph unicode="&#xc6;" horiz-adv-x="1858" d="M481 621q58 -12 103 -18l82 -5h12l27 2q0 56 8 127l18 140q18 159 43 331q-54 -129 -129 -276l-77 -147zM801 1450l121 42l106 42q-62 -191 -102 -451l-29 -196q-15 -103 -25 -211.5t-10 -220.5q53 94 139.5 162t215.5 116q-94 34 -138.5 81.5t-44.5 113.5 q0 84 72.5 177.5t247.5 231.5q114 90 173 121q30 15 58 23t53 8q82 0 144.5 -45t62.5 -98q0 -66 -64 -144t-190 -168l-32 17q51 36 76.5 70t25.5 67q0 50 -52 90.5t-120 40.5q-21 0 -31 -1t-29 -7q-16 -3 -28.5 -8t-28.5 -15q-63 -58 -99 -120q-16 -29 -25 -58t-9 -53 q0 -96 105 -165t262 -69h18l-110 -73q-41 -28 -79 -60l-79 7l-52 5q-178 -27 -304 -141.5t-126 -245.5q0 -93 59 -144.5t165 -51.5q83 0 157.5 24t141.5 74q36 50 68 109q13 25 26 54t22 56l99 13q-117 -235 -299.5 -372.5t-374.5 -137.5q-132 0 -195 85.5t-63 268.5l3 90 l9 104l-63 -5l-64 -1l-78 1l-86 5q-230 -372 -375 -538t-239 -166q-57 0 -90 36.5t-33 100.5q0 98 60 218q57 115 174 245l41 4q-71 -87 -108.5 -165t-37.5 -134q0 -42 20.5 -66t55.5 -24q71 0 177.5 108.5t297.5 384.5q-16 0 -29 0.5t-53 4.5q-20 0 -29 1l-50 9 q73 34 134 68t123 75l150 265q64 120 112 226t73.5 184t25.5 126z" />
<glyph unicode="&#xc7;" horiz-adv-x="1118" d="M247 -59q-134 0 -210 83t-76 224q0 148 75 322t220 358q202 256 429 411.5t386 155.5q61 0 98 -34t37 -91q0 -89 -75 -202q-37 -54 -96.5 -118.5t-140 -137t-174.5 -130.5q-86 -52 -185 -92l-21 58q206 57 348 191.5t142 256.5q0 63 -44 106.5t-110 43.5 q-54 0 -122.5 -36t-143.5 -104q-96 -86 -183.5 -210t-152.5 -265q-36 -80 -56 -161t-20 -144q0 -150 73.5 -231.5t211.5 -81.5q42 0 75.5 6.5t59.5 19.5q85 85 142 160.5t91 149.5l105 18q-182 -261 -355 -395q-133 -101 -259 -124l-52 -71l16 3l43 5q61 0 102.5 -29.5 t41.5 -68.5q0 -65 -100 -139t-197 -74q-29 0 -58 10q-16 5 -29 11.5t-28 17.5l39 55q22 -17 52 -28q30 -9 69 -9q50 0 90 26q41 24 41 52t-40 53q-40 23 -95 23q-22 0 -30 -1.5t-13.5 -3t-12.5 -5.5l-20 14zM316 -52q-18 -3 -34.5 -5t-34.5 -2l3 7q4 -1 11 -2t11 -1 q10 0 23.5 3.5t26.5 11.5z" />
<glyph unicode="&#xc8;" horiz-adv-x="1096" d="M768 436l98 13q-120 -230 -292.5 -367t-333.5 -137q-116 0 -195.5 75t-79.5 189q0 141 135.5 283.5t370.5 240.5q-94 35 -138 82t-44 113q0 85 72 178t247 231q112 89 174 121q30 15 58 23t53 8q82 0 144.5 -45t62.5 -98q0 -67 -64 -145t-190 -167l-33 17q50 35 76 69.5 t26 67.5q0 50 -52 90.5t-120 40.5q-21 0 -31 -1t-29 -7q-29 -6 -56 -23q-63 -58 -99 -120q-16 -29 -25 -58t-9 -53q0 -96 103.5 -165t260.5 -69h19q-54 -34 -104 -70l-32 -23q-21 -15 -51 -40l-63 9l-45 3q-35 0 -74 -10q-41 -9 -78 -28q-110 -54 -181 -148t-71 -182 q0 -82 60 -131t163 -49q74 0 136 15t114 48q38 53 67 107q26 48 50 112zM731 1971l219 -41l190 -277l-149 29z" />
<glyph unicode="&#xc9;" horiz-adv-x="1096" d="M768 436l98 13q-120 -230 -292.5 -367t-333.5 -137q-116 0 -195.5 75t-79.5 189q0 141 135.5 283.5t370.5 240.5q-94 35 -138 82t-44 113q0 85 72 178t247 231q112 89 174 121q30 15 58 23t53 8q82 0 144.5 -45t62.5 -98q0 -67 -64 -145t-190 -167l-33 17q50 35 76 69.5 t26 67.5q0 50 -52 90.5t-120 40.5q-21 0 -31 -1t-29 -7q-29 -6 -56 -23q-63 -58 -99 -120q-16 -29 -25 -58t-9 -53q0 -96 103.5 -165t260.5 -69h19q-54 -34 -104 -70l-32 -23q-21 -15 -51 -40l-63 9l-45 3q-35 0 -74 -10q-41 -9 -78 -28q-110 -54 -181 -148t-71 -182 q0 -82 60 -131t163 -49q74 0 136 15t114 48q38 53 67 107q26 48 50 112zM819 1653l207 266l221 27l-297 -277z" />
<glyph unicode="&#xca;" horiz-adv-x="1096" d="M768 436l98 13q-120 -230 -292.5 -367t-333.5 -137q-116 0 -195.5 75t-79.5 189q0 141 135.5 283.5t370.5 240.5q-94 35 -138 82t-44 113q0 85 72 178t247 231q112 89 174 121q30 15 58 23t53 8q82 0 144.5 -45t62.5 -98q0 -67 -64 -145t-190 -167l-33 17q50 35 76 69.5 t26 67.5q0 50 -52 90.5t-120 40.5q-21 0 -31 -1t-29 -7q-29 -6 -56 -23q-63 -58 -99 -120q-16 -29 -25 -58t-9 -53q0 -96 103.5 -165t260.5 -69h19q-54 -34 -104 -70l-32 -23q-21 -15 -51 -40l-63 9l-45 3q-35 0 -74 -10q-41 -9 -78 -28q-110 -54 -181 -148t-71 -182 q0 -82 60 -131t163 -49q74 0 136 15t114 48q38 53 67 107q26 48 50 112zM964 2003h129l148 -303l-80 -47l-144 242l-274 -242l-94 49z" />
<glyph unicode="&#xcb;" horiz-adv-x="1096" d="M768 436l98 13q-120 -230 -292.5 -367t-333.5 -137q-116 0 -195.5 75t-79.5 189q0 141 135.5 283.5t370.5 240.5q-94 35 -138 82t-44 113q0 85 72 178t247 231q112 89 174 121q30 15 58 23t53 8q82 0 144.5 -45t62.5 -98q0 -67 -64 -145t-190 -167l-33 17q50 35 76 69.5 t26 67.5q0 50 -52 90.5t-120 40.5q-21 0 -31 -1t-29 -7q-29 -6 -56 -23q-63 -58 -99 -120q-16 -29 -25 -58t-9 -53q0 -96 103.5 -165t260.5 -69h19q-54 -34 -104 -70l-32 -23q-21 -15 -51 -40l-63 9l-45 3q-35 0 -74 -10q-41 -9 -78 -28q-110 -54 -181 -148t-71 -182 q0 -82 60 -131t163 -49q74 0 136 15t114 48q38 53 67 107q26 48 50 112zM1011 1739l142 148q41 -17 86 -28q45 -9 98 -9q-25 -63 -83.5 -102.5t-125.5 -39.5q-20 0 -29.5 1t-27 6t-31.5 10.5t-29 13.5zM659 1739l139 148q39 -17 85.5 -27t99.5 -10q-25 -62 -83 -102 t-124 -40q-20 0 -29.5 1t-27 6t-31.5 10.5t-29 13.5z" />
<glyph unicode="&#xcc;" horiz-adv-x="883" d="M213 1079q60 177 189 288.5t266 111.5q21 0 73 -2.5t73 -2.5l130 -4q-60 -51 -96.5 -94t-59.5 -88q-46 -91 -132.5 -399.5t-166.5 -495.5q-89 -214 -239.5 -379t-284.5 -202q-25 24 -40 62t-15 85q0 76 23 165.5t67 188.5l104 78q-23 -42 -40 -116t-17 -136 q0 -66 15.5 -108t48.5 -60q62 74 118 204q52 125 141 438.5t151 481t112 226.5l-52 3l-46 3q-32 0 -66 -7q-25 -4 -38 -7.5t-40 -12.5q-21 -24 -39 -63q-8 -17 -23 -60l-18 -49l-40 -21zM557 1971l219 -41l190 -277l-149 29z" />
<glyph unicode="&#xcd;" horiz-adv-x="883" d="M213 1079q60 177 189 288.5t266 111.5q21 0 73 -2.5t73 -2.5l130 -4q-60 -51 -96.5 -94t-59.5 -88q-46 -91 -132.5 -399.5t-166.5 -495.5q-89 -214 -239.5 -379t-284.5 -202q-25 24 -40 62t-15 85q0 76 23 165.5t67 188.5l104 78q-23 -42 -40 -116t-17 -136 q0 -66 15.5 -108t48.5 -60q62 74 118 204q52 125 141 438.5t151 481t112 226.5l-52 3l-46 3q-32 0 -66 -7q-25 -4 -38 -7.5t-40 -12.5q-21 -24 -39 -63q-8 -17 -23 -60l-18 -49l-40 -21zM645 1653l207 266l221 27l-297 -277z" />
<glyph unicode="&#xce;" horiz-adv-x="883" d="M213 1079q60 177 189 288.5t266 111.5q21 0 73 -2.5t73 -2.5l130 -4q-60 -51 -96.5 -94t-59.5 -88q-46 -91 -132.5 -399.5t-166.5 -495.5q-89 -214 -239.5 -379t-284.5 -202q-25 24 -40 62t-15 85q0 76 23 165.5t67 188.5l104 78q-23 -42 -40 -116t-17 -136 q0 -66 15.5 -108t48.5 -60q62 74 118 204q52 125 141 438.5t151 481t112 226.5l-52 3l-46 3q-32 0 -66 -7q-25 -4 -38 -7.5t-40 -12.5q-21 -24 -39 -63q-8 -17 -23 -60l-18 -49l-40 -21zM790 2003h129l148 -303l-80 -47l-144 242l-274 -242l-94 49z" />
<glyph unicode="&#xcf;" horiz-adv-x="883" d="M213 1079q60 177 189 288.5t266 111.5q21 0 73 -2.5t73 -2.5l130 -4q-60 -51 -96.5 -94t-59.5 -88q-46 -91 -132.5 -399.5t-166.5 -495.5q-89 -214 -239.5 -379t-284.5 -202q-25 24 -40 62t-15 85q0 76 23 165.5t67 188.5l104 78q-23 -42 -40 -116t-17 -136 q0 -66 15.5 -108t48.5 -60q62 74 118 204q52 125 141 438.5t151 481t112 226.5l-52 3l-46 3q-32 0 -66 -7q-25 -4 -38 -7.5t-40 -12.5q-21 -24 -39 -63q-8 -17 -23 -60l-18 -49l-40 -21zM837 1739l142 148q41 -17 86 -28q45 -9 98 -9q-25 -63 -83.5 -102.5t-125.5 -39.5 q-20 0 -29.5 1t-27 6t-31.5 10.5t-29 13.5zM485 1739l139 148q39 -17 85.5 -27t99.5 -10q-25 -62 -83 -102t-124 -40q-20 0 -29.5 1t-27 6t-31.5 10.5t-29 13.5z" />
<glyph unicode="&#xd0;" horiz-adv-x="1219" d="M272 -78l-5 -31l-1 -30q0 -54 20.5 -98t63.5 -78q117 74 243 393q73 182 126 289l-8 6q-120 -192 -231 -308q-107 -110 -208 -143zM870 930h-55q70 63 112 137t42 137q0 62 -36.5 99.5t-96.5 37.5q-72 0 -153.5 -45t-168.5 -137q-150 -157 -244 -368.5t-94 -387.5 q0 -135 57 -213.5t150 -78.5h16q13 3 25 5t33 11q72 69 162.5 207t166.5 302q-34 5 -70 8l-59 6q-29 0 -48 1q-74 4 -83 4l185 121q100 -15 190 -24q28 0 110 -7q47 -4 66 -4q-119 -130 -208 -378l-27 -74q-116 -309 -254 -472t-346 -259q-22 36 -33 78q-10 45 -10 96 q0 48 9 96.5t30 95.5q-59 0 -105.5 26t-85.5 78q-72 96 -72 251q0 203 139.5 460t366.5 461q156 138 298 219.5t231 81.5q68 0 112.5 -38.5t44.5 -100.5q0 -72 -82 -193.5t-215 -238.5zM716 1970l64 1q12 -75 54 -109.5t118 -34.5q95 0 167 33.5t138 110.5h70 q-91 -152 -182.5 -219.5t-202.5 -67.5q-112 0 -168 71q-28 36 -43 89t-15 126z" />
<glyph unicode="&#xd1;" horiz-adv-x="1479" d="M197 1221q120 105 229 176q104 65 203 98q94 -147 188 -486q89 -324 164 -798q78 144 142 279q61 129 105.5 248.5t66.5 210t22 159.5q0 80 -29.5 124t-83.5 44q-42 0 -81.5 -29t-80.5 -88l-20 35q98 137 192 217t152 80q39 0 61.5 -38.5t22.5 -106.5 q0 -215 -160.5 -609.5t-441.5 -849.5l-17 -2q-46 360 -112.5 671t-147.5 554q-73 -254 -184.5 -512t-255.5 -504q-108 -183 -192 -279t-136 -96q-32 0 -55.5 37t-23.5 90q0 111 56.5 227.5t184.5 262.5l64 18q-81 -78 -125.5 -158.5t-44.5 -148.5q0 -24 10 -37.5t31 -13.5 q49 0 113 70.5t147 216.5q157 279 258.5 533t101.5 347q0 59 -26.5 91t-77.5 32q-42 0 -99 -29.5t-112 -80.5zM1364 1932l37 -15q-24 -52 -47.5 -89.5t-44.5 -57.5q-43 -41 -99 -41h-15h-12q-8 2 -13.5 2.5t-13 1.5t-19.5 6l-113 33l-35 9l-24 3q-28 0 -53 -18t-56 -62 l-41 21q47 92 93 137t91 45l22 -3l35 -7l130 -35l38 -8l19 -2q37 0 67 20t54 60z" />
<glyph unicode="&#xd2;" horiz-adv-x="1374" d="M645 1366l33 -6q-217 -166 -339 -393.5t-122 -464.5q0 -177 101 -283t268 -106q83 0 157 33t144 104q118 121 196 309t78 354t-71 265.5t-189 99.5q-91 0 -178.5 -62.5t-177.5 -193.5l-51 -2q60 80 187 233q123 149 153 207q34 16 78.5 25.5t97.5 9.5q161 0 267.5 -120.5 t106.5 -305.5q0 -224 -112.5 -441t-325.5 -403q-160 -139 -309.5 -216t-259.5 -77q-178 0 -281.5 111.5t-103.5 304.5q0 277 173 546.5t480 471.5zM803 1971l219 -41l190 -277l-149 29z" />
<glyph unicode="&#xd3;" horiz-adv-x="1374" d="M645 1366l33 -6q-217 -166 -339 -393.5t-122 -464.5q0 -177 101 -283t268 -106q83 0 157 33t144 104q118 121 196 309t78 354t-71 265.5t-189 99.5q-91 0 -178.5 -62.5t-177.5 -193.5l-51 -2q60 80 187 233q123 149 153 207q34 16 78.5 25.5t97.5 9.5q161 0 267.5 -120.5 t106.5 -305.5q0 -224 -112.5 -441t-325.5 -403q-160 -139 -309.5 -216t-259.5 -77q-178 0 -281.5 111.5t-103.5 304.5q0 277 173 546.5t480 471.5zM891 1653l207 266l221 27l-297 -277z" />
<glyph unicode="&#xd4;" horiz-adv-x="1374" d="M645 1366l33 -6q-217 -166 -339 -393.5t-122 -464.5q0 -177 101 -283t268 -106q83 0 157 33t144 104q118 121 196 309t78 354t-71 265.5t-189 99.5q-91 0 -178.5 -62.5t-177.5 -193.5l-51 -2q60 80 187 233q123 149 153 207q34 16 78.5 25.5t97.5 9.5q161 0 267.5 -120.5 t106.5 -305.5q0 -224 -112.5 -441t-325.5 -403q-160 -139 -309.5 -216t-259.5 -77q-178 0 -281.5 111.5t-103.5 304.5q0 277 173 546.5t480 471.5zM1036 2003h129l148 -303l-80 -47l-144 242l-274 -242l-94 49z" />
<glyph unicode="&#xd5;" horiz-adv-x="1374" d="M645 1366l33 -6q-217 -166 -339 -393.5t-122 -464.5q0 -177 101 -283t268 -106q83 0 157 33t144 104q118 121 196 309t78 354t-71 265.5t-189 99.5q-91 0 -178.5 -62.5t-177.5 -193.5l-51 -2q60 80 187 233q123 149 153 207q34 16 78.5 25.5t97.5 9.5q161 0 267.5 -120.5 t106.5 -305.5q0 -224 -112.5 -441t-325.5 -403q-160 -139 -309.5 -216t-259.5 -77q-178 0 -281.5 111.5t-103.5 304.5q0 277 173 546.5t480 471.5zM1325 1932l37 -15q-24 -52 -47.5 -89.5t-44.5 -57.5q-43 -41 -99 -41h-15h-12q-8 2 -13.5 2.5t-13 1.5t-19.5 6l-113 33 l-35 9l-24 3q-28 0 -53 -18t-56 -62l-41 21q47 92 93 137t91 45l22 -3l35 -7l130 -35l38 -8l19 -2q37 0 67 20t54 60z" />
<glyph unicode="&#xd6;" horiz-adv-x="1374" d="M645 1366l33 -6q-217 -166 -339 -393.5t-122 -464.5q0 -177 101 -283t268 -106q83 0 157 33t144 104q118 121 196 309t78 354t-71 265.5t-189 99.5q-91 0 -178.5 -62.5t-177.5 -193.5l-51 -2q60 80 187 233q123 149 153 207q34 16 78.5 25.5t97.5 9.5q161 0 267.5 -120.5 t106.5 -305.5q0 -224 -112.5 -441t-325.5 -403q-160 -139 -309.5 -216t-259.5 -77q-178 0 -281.5 111.5t-103.5 304.5q0 277 173 546.5t480 471.5zM1083 1739l142 148q41 -17 86 -28q45 -9 98 -9q-25 -63 -83.5 -102.5t-125.5 -39.5q-20 0 -29.5 1t-27 6t-31.5 10.5 t-29 13.5zM731 1739l139 148q39 -17 85.5 -27t99.5 -10q-25 -62 -83 -102t-124 -40q-20 0 -29.5 1t-27 6t-31.5 10.5t-29 13.5z" />
<glyph unicode="&#xd7;" horiz-adv-x="1706" d="M391 1178l469 -469l469 469l98 -99l-469 -469l469 -469l-98 -96l-469 467l-469 -467l-98 96l469 469l-469 469z" />
<glyph unicode="&#xd8;" horiz-adv-x="1374" d="M336 188q37 -38 101 -62q66 -22 141 -22q87 0 161.5 36t149.5 112q123 127 202 317q40 95 60 183t20 172t-20 148q-18 66 -57 114zM645 1366l33 -6q-217 -167 -346 -403.5t-129 -462.5q0 -88 19.5 -148t62.5 -108l759 999q-23 23 -57 35t-82 12q-93 0 -179.5 -63 t-180.5 -199l-51 -2q60 80 187 233q123 149 153 207q34 16 78.5 25.5t97.5 9.5q25 0 48.5 -3t49.5 -10q49 -12 92 -38l162 219h90l-199 -260q63 -67 97 -152.5t34 -181.5q0 -224 -112.5 -441t-325.5 -403q-161 -140 -310 -216.5t-261 -76.5q-41 0 -88 12q-45 10 -105 36 l-155 -207h-90l184 245q-64 45 -96.5 129t-32.5 201q0 277 173 547t480 471z" />
<glyph unicode="&#xd9;" horiz-adv-x="1432" d="M215 1245l192 130l114 75q76 47 93 47q27 0 42.5 -22t15.5 -60q0 -80 -153 -482l-46 -120l-66 -172q-124 -322 -124 -379q0 -29 11.5 -44t33.5 -15q49 0 172.5 122t249.5 308q46 67 89.5 145.5t86.5 171.5t91 211.5t95 247.5l112 44q122 48 136 50l6 -3l2 -7 q0 -11 -66 -157l-88 -197q-175 -399 -225.5 -565t-50.5 -287q0 -62 17.5 -93.5t50.5 -31.5q29 0 63.5 24t79.5 76l14 -37q-118 -134 -220.5 -211t-162.5 -77q-42 0 -61 34t-19 121q0 118 24 251.5t69 266.5l-7 4q-197 -298 -404.5 -487.5t-311.5 -189.5q-26 0 -41 15 q-13 16 -13 46q0 35 101 308l96 263q81 230 132.5 408t51.5 213q0 36 -12.5 53t-42.5 17q-13 0 -36 -10q-9 -4 -31 -15.5t-50 -28.5zM750 1971l219 -41l190 -277l-149 29z" />
<glyph unicode="&#xda;" horiz-adv-x="1432" d="M215 1245l192 130l114 75q76 47 93 47q27 0 42.5 -22t15.5 -60q0 -80 -153 -482l-46 -120l-66 -172q-124 -322 -124 -379q0 -29 11.5 -44t33.5 -15q49 0 172.5 122t249.5 308q46 67 89.5 145.5t86.5 171.5t91 211.5t95 247.5l112 44q122 48 136 50l6 -3l2 -7 q0 -11 -66 -157l-88 -197q-175 -399 -225.5 -565t-50.5 -287q0 -62 17.5 -93.5t50.5 -31.5q29 0 63.5 24t79.5 76l14 -37q-118 -134 -220.5 -211t-162.5 -77q-42 0 -61 34t-19 121q0 118 24 251.5t69 266.5l-7 4q-197 -298 -404.5 -487.5t-311.5 -189.5q-26 0 -41 15 q-13 16 -13 46q0 35 101 308l96 263q81 230 132.5 408t51.5 213q0 36 -12.5 53t-42.5 17q-13 0 -36 -10q-9 -4 -31 -15.5t-50 -28.5zM838 1653l207 266l221 27l-297 -277z" />
<glyph unicode="&#xdb;" horiz-adv-x="1432" d="M215 1245l192 130l114 75q76 47 93 47q27 0 42.5 -22t15.5 -60q0 -80 -153 -482l-46 -120l-66 -172q-124 -322 -124 -379q0 -29 11.5 -44t33.5 -15q49 0 172.5 122t249.5 308q46 67 89.5 145.5t86.5 171.5t91 211.5t95 247.5l112 44q122 48 136 50l6 -3l2 -7 q0 -11 -66 -157l-88 -197q-175 -399 -225.5 -565t-50.5 -287q0 -62 17.5 -93.5t50.5 -31.5q29 0 63.5 24t79.5 76l14 -37q-118 -134 -220.5 -211t-162.5 -77q-42 0 -61 34t-19 121q0 118 24 251.5t69 266.5l-7 4q-197 -298 -404.5 -487.5t-311.5 -189.5q-26 0 -41 15 q-13 16 -13 46q0 35 101 308l96 263q81 230 132.5 408t51.5 213q0 36 -12.5 53t-42.5 17q-13 0 -36 -10q-9 -4 -31 -15.5t-50 -28.5zM983 2003h129l148 -303l-80 -47l-144 242l-274 -242l-94 49z" />
<glyph unicode="&#xdc;" horiz-adv-x="1432" d="M215 1245l192 130l114 75q76 47 93 47q27 0 42.5 -22t15.5 -60q0 -80 -153 -482l-46 -120l-66 -172q-124 -322 -124 -379q0 -29 11.5 -44t33.5 -15q49 0 172.5 122t249.5 308q46 67 89.5 145.5t86.5 171.5t91 211.5t95 247.5l112 44q122 48 136 50l6 -3l2 -7 q0 -11 -66 -157l-88 -197q-175 -399 -225.5 -565t-50.5 -287q0 -62 17.5 -93.5t50.5 -31.5q29 0 63.5 24t79.5 76l14 -37q-118 -134 -220.5 -211t-162.5 -77q-42 0 -61 34t-19 121q0 118 24 251.5t69 266.5l-7 4q-197 -298 -404.5 -487.5t-311.5 -189.5q-26 0 -41 15 q-13 16 -13 46q0 35 101 308l96 263q81 230 132.5 408t51.5 213q0 36 -12.5 53t-42.5 17q-13 0 -36 -10q-9 -4 -31 -15.5t-50 -28.5zM1030 1739l142 148q41 -17 86 -28q45 -9 98 -9q-25 -63 -83.5 -102.5t-125.5 -39.5q-20 0 -29.5 1t-27 6t-31.5 10.5t-29 13.5zM678 1739 l139 148q39 -17 85.5 -27t99.5 -10q-25 -62 -83 -102t-124 -40q-20 0 -29.5 1t-27 6t-31.5 10.5t-29 13.5z" />
<glyph unicode="&#xdd;" horiz-adv-x="883" d="M213 1079q60 177 189 288.5t266 111.5q21 0 73 -2.5t73 -2.5l130 -4q-60 -51 -96.5 -94t-59.5 -88q-46 -91 -132.5 -399.5t-166.5 -495.5q-89 -214 -239.5 -379t-284.5 -202q-25 24 -40 62t-15 85q0 76 23 165.5t67 188.5l104 78q-23 -42 -40 -116t-17 -136 q0 -66 15.5 -108t48.5 -60q62 74 118 204q52 125 141 438.5t151 481t112 226.5l-52 3l-46 3q-32 0 -66 -7q-25 -4 -38 -7.5t-40 -12.5q-21 -24 -39 -63q-8 -17 -23 -60l-18 -49l-40 -21zM821 1930q45 0 80 -33.5t35 -79.5q0 -48 -33.5 -81.5t-81.5 -33.5q-45 0 -79 33.5 t-34 81.5q0 44 34.5 78.5t78.5 34.5z" />
<glyph unicode="&#xde;" horiz-adv-x="1071" d="M215 -70h-6q-102 0 -189.5 60.5t-87.5 103.5q0 46 63 168q32 62 71 121.5t90 122.5l73 6q-54 -43 -91 -99q-34 -56 -34 -96q0 -71 80.5 -120.5t202.5 -49.5q164 0 237.5 52.5t73.5 171.5q0 66 -40 112.5t-177 112.5q-158 75 -211 137q-27 33 -40 69.5t-13 84.5 q0 74 42 165t120 181q106 122 224 189t233 67q107 0 187.5 -69.5t80.5 -127.5q0 -28 -68 -131t-164 -196l-53 6q55 44 77 80t22 77q0 72 -62.5 115t-165.5 43q-155 0 -237 -61t-82 -176q0 -129 230 -244l65 -33q102 -54 141 -108t39 -136q0 -131 -83 -251.5t-265 -251.5 q-60 -44 -139 -69q-21 -7 -38 -11.5t-37 -7.5l-44 -60l16 3l43 5q61 0 102.5 -29.5t41.5 -68.5q0 -65 -100 -139t-197 -74q-29 0 -58 10q-16 5 -29 11.5t-28 17.5l39 55q22 -17 52 -28q30 -9 69 -9q50 0 90 26q41 24 41 52t-40 53q-40 23 -95 23q-22 0 -30 -1.5t-13.5 -3 t-12.5 -5.5l-20 14zM284 -63q-18 -3 -34.5 -5t-34.5 -2l51 70h64z" />
<glyph unicode="&#xdf;" horiz-adv-x="958" d="M166 791q31 91 61.5 165t57.5 124q55 105 125 173q82 82 209.5 141.5t189.5 59.5q60 0 88.5 -32.5t28.5 -102.5q0 -130 -77 -249t-222 -210h30q93 0 133.5 -39.5t40.5 -130.5q0 -15 -1 -31t-4 -35.5t-6 -36t-11 -42.5q-45 -163 -132 -296q-43 -66 -98 -125.5t-126 -117.5 q-38 -32 -90.5 -53t-100.5 -21q-46 0 -76 21q-28 22 -28 53q0 36 36 99q20 34 47 73.5t72 97.5l21 -16q-22 -36 -35 -71q-10 -33 -10 -58q0 -43 24.5 -66.5t92.5 -39.5q43 32 75 92q16 29 33 71t35 95q34 105 54 203q10 51 15 89t5 72q0 77 -31 118.5t-90 41.5 q-26 0 -48 -11q-25 -10 -57 -38l27 118l48 -12l36 -4l22 1l36 6q79 57 132.5 169t53.5 219q0 50 -20.5 76.5t-61.5 26.5q-23 0 -51 -15.5t-54 -44.5q-116 -129 -290 -704l-80 -264q-94 -298 -152.5 -433t-118.5 -210q-81 -102 -132.5 -141.5t-94.5 -39.5q-36 0 -59 28.5 t-23 74.5q0 52 25 113.5t69 109.5l41 14q-16 -32 -24.5 -62t-8.5 -56q0 -48 21.5 -76.5t56.5 -28.5h6q30 49 118 327l59 199l66 232l75 266h-119l89 76z" />
<glyph unicode="&#xe0;" d="M479 780q-13 45 -44 75t-62 30q-18 0 -48.5 -27.5t-66.5 -81.5q-79 -119 -140 -289q-57 -165 -57 -262q0 -37 9.5 -57.5t27.5 -20.5q36 0 113 85.5t151 216.5q18 31 70 153.5t94 202.5l-4 6zM590 195l6 -45q-80 -91 -163 -147t-128 -56q-25 0 -40 19q-13 20 -13 54 q0 54 23.5 136.5t72.5 189.5l-8 2q-135 -184 -256 -294.5t-184 -110.5q-33 0 -48.5 28t-15.5 84q0 94 37 213t104 246q60 113 125.5 198t137.5 143t163.5 101t124.5 43q24 0 56 -25.5t51 -64.5q25 10 57 32t39 24l8 -3q4 -5 4 -8q0 -11 -44.5 -108t-77.5 -178 q-39 -93 -66 -166t-50 -144q-38 -125 -38 -186q0 -14 1 -19.5t8 -16.5t22 -11q17 0 40.5 18t51.5 52zM342 1473l219 -41l190 -277l-149 29z" />
<glyph unicode="&#xe1;" d="M479 780q-13 45 -44 75t-62 30q-18 0 -48.5 -27.5t-66.5 -81.5q-79 -119 -140 -289q-57 -165 -57 -262q0 -37 9.5 -57.5t27.5 -20.5q36 0 113 85.5t151 216.5q18 31 70 153.5t94 202.5l-4 6zM590 195l6 -45q-80 -91 -163 -147t-128 -56q-25 0 -40 19q-13 20 -13 54 q0 54 23.5 136.5t72.5 189.5l-8 2q-135 -184 -256 -294.5t-184 -110.5q-33 0 -48.5 28t-15.5 84q0 94 37 213t104 246q60 113 125.5 198t137.5 143t163.5 101t124.5 43q24 0 56 -25.5t51 -64.5q25 10 57 32t39 24l8 -3q4 -5 4 -8q0 -11 -44.5 -108t-77.5 -178 q-39 -93 -66 -166t-50 -144q-38 -125 -38 -186q0 -14 1 -19.5t8 -16.5t22 -11q17 0 40.5 18t51.5 52zM430 1155l207 266l221 27l-297 -277z" />
<glyph unicode="&#xe2;" d="M479 780q-13 45 -44 75t-62 30q-18 0 -48.5 -27.5t-66.5 -81.5q-79 -119 -140 -289q-57 -165 -57 -262q0 -37 9.5 -57.5t27.5 -20.5q36 0 113 85.5t151 216.5q18 31 70 153.5t94 202.5l-4 6zM590 195l6 -45q-80 -91 -163 -147t-128 -56q-25 0 -40 19q-13 20 -13 54 q0 54 23.5 136.5t72.5 189.5l-8 2q-135 -184 -256 -294.5t-184 -110.5q-33 0 -48.5 28t-15.5 84q0 94 37 213t104 246q60 113 125.5 198t137.5 143t163.5 101t124.5 43q24 0 56 -25.5t51 -64.5q25 10 57 32t39 24l8 -3q4 -5 4 -8q0 -11 -44.5 -108t-77.5 -178 q-39 -93 -66 -166t-50 -144q-38 -125 -38 -186q0 -14 1 -19.5t8 -16.5t22 -11q17 0 40.5 18t51.5 52zM575 1505h129l148 -303l-80 -47l-144 242l-274 -242l-94 49z" />
<glyph unicode="&#xe3;" d="M479 780q-13 45 -44 75t-62 30q-18 0 -48.5 -27.5t-66.5 -81.5q-79 -119 -140 -289q-57 -165 -57 -262q0 -37 9.5 -57.5t27.5 -20.5q36 0 113 85.5t151 216.5q18 31 70 153.5t94 202.5l-4 6zM590 195l6 -45q-80 -91 -163 -147t-128 -56q-25 0 -40 19q-13 20 -13 54 q0 54 23.5 136.5t72.5 189.5l-8 2q-135 -184 -256 -294.5t-184 -110.5q-33 0 -48.5 28t-15.5 84q0 94 37 213t104 246q60 113 125.5 198t137.5 143t163.5 101t124.5 43q24 0 56 -25.5t51 -64.5q25 10 57 32t39 24l8 -3q4 -5 4 -8q0 -11 -44.5 -108t-77.5 -178 q-39 -93 -66 -166t-50 -144q-38 -125 -38 -186q0 -14 1 -19.5t8 -16.5t22 -11q17 0 40.5 18t51.5 52zM864 1434l37 -15q-24 -52 -47.5 -89.5t-44.5 -57.5q-43 -41 -99 -41h-15h-12q-8 2 -13.5 2.5t-13 1.5t-19.5 6l-113 33l-35 9l-24 3q-28 0 -53 -18t-56 -62l-41 21 q47 92 93 137t91 45l22 -3l35 -7l130 -35l38 -8l19 -2q37 0 67 20t54 60z" />
<glyph unicode="&#xe4;" d="M479 780q-13 45 -44 75t-62 30q-18 0 -48.5 -27.5t-66.5 -81.5q-79 -119 -140 -289q-57 -165 -57 -262q0 -37 9.5 -57.5t27.5 -20.5q36 0 113 85.5t151 216.5q18 31 70 153.5t94 202.5l-4 6zM590 195l6 -45q-80 -91 -163 -147t-128 -56q-25 0 -40 19q-13 20 -13 54 q0 54 23.5 136.5t72.5 189.5l-8 2q-135 -184 -256 -294.5t-184 -110.5q-33 0 -48.5 28t-15.5 84q0 94 37 213t104 246q60 113 125.5 198t137.5 143t163.5 101t124.5 43q24 0 56 -25.5t51 -64.5q25 10 57 32t39 24l8 -3q4 -5 4 -8q0 -11 -44.5 -108t-77.5 -178 q-39 -93 -66 -166t-50 -144q-38 -125 -38 -186q0 -14 1 -19.5t8 -16.5t22 -11q17 0 40.5 18t51.5 52zM622 1241l142 148q41 -17 86 -28q45 -9 98 -9q-25 -63 -83.5 -102.5t-125.5 -39.5q-20 0 -29.5 1t-27 6t-31.5 10.5t-29 13.5zM270 1241l139 148q39 -17 85.5 -27 t99.5 -10q-25 -62 -83 -102t-124 -40q-20 0 -29.5 1t-27 6t-31.5 10.5t-29 13.5z" />
<glyph unicode="&#xe5;" d="M612 1462q-63 0 -107 -43t-44 -106q0 -62 45 -106t106 -44q60 0 104 44t44 106t-42.5 105.5t-105.5 43.5zM610 1561q102 0 175 -73t73 -175q0 -105 -71.5 -176.5t-176.5 -71.5q-104 0 -176 71.5t-72 176.5q0 102 72 175t176 73zM479 780q-13 45 -44 75t-62 30 q-18 0 -48.5 -27.5t-66.5 -81.5q-79 -119 -140 -289q-57 -165 -57 -262q0 -37 9.5 -57.5t27.5 -20.5q36 0 113 85.5t151 216.5q18 31 70 153.5t94 202.5l-4 6zM590 195l6 -45q-80 -91 -163 -147t-128 -56q-25 0 -40 19q-13 20 -13 54q0 54 23.5 136.5t72.5 189.5l-8 2 q-135 -184 -256 -294.5t-184 -110.5q-33 0 -48.5 28t-15.5 84q0 94 37 213t104 246q60 113 125.5 198t137.5 143t163.5 101t124.5 43q24 0 56 -25.5t51 -64.5q25 10 57 32t39 24l8 -3q4 -5 4 -8q0 -11 -44.5 -108t-77.5 -178q-39 -93 -66 -166t-50 -144q-38 -125 -38 -186 q0 -14 1 -19.5t8 -16.5t22 -11q17 0 40.5 18t51.5 52z" />
<glyph unicode="&#xe6;" horiz-adv-x="1034" d="M584 627l38 -11l48 -4l17 1l33 3q47 38 77 86q28 50 28 89q0 28 -15 48.5t-38 20.5q-9 0 -27 -6q-5 -1 -6 -2q-56 -46 -92.5 -99.5t-62.5 -125.5zM479 780q-13 45 -44 75t-62 30q-18 0 -48.5 -27.5t-66.5 -81.5q-79 -119 -140 -289q-57 -165 -57 -262q0 -37 9.5 -57.5 t27.5 -20.5q36 0 113 85.5t151 216.5q22 37 72 157q27 64 48 109q25 54 44 90l-4 6zM758 313l88 6q-54 -151 -185 -271t-217 -120q-63 0 -105 57.5t-42 147.5q0 33 1 49t7 48q7 48 27 118q-57 -87 -118 -161t-124 -130q-125 -114 -190 -114q-33 0 -48.5 28t-15.5 84 q0 95 37 213q19 63 44.5 122.5t62.5 127.5q29 54 59.5 101t64.5 91q65 82 142 146q67 57 144 100t102 43q17 0 37 -19q20 -17 61 -75l57 45q21 15 27 15t9 -4.5t3 -6.5q0 -7 -9 -34l-32 -84q107 79 184 115t136 36q33 0 56 -20t23 -52q0 -46 -43.5 -112t-115.5 -123 q-91 -72 -182 -116q-47 -22 -87.5 -34t-74.5 -12q-22 -52 -34 -114q-5 -26 -8 -59t-3 -69q0 -89 32 -135.5t95 -46.5h16l13 3q33 33 60 87t46 129z" />
<glyph unicode="&#xe7;" horiz-adv-x="616" d="M20 -49l-18 -2q-54 0 -88.5 53t-34.5 141q0 172 87.5 351.5t250.5 336.5q73 71 189.5 123t175.5 52q13 0 22 -12q4 -6 6 -13t2 -18q0 -33 -22 -101.5t-62 -153.5l-40 -17q-89 -38 -138 -64q30 51 48 102t18 90q0 27 -11 43.5t-30 16.5q-13 0 -23.5 -4t-24.5 -16 q-26 -21 -57 -62q-73 -100 -129.5 -265t-56.5 -274q0 -73 27 -114.5t75 -41.5h17q32 23 61 66q26 39 49 94l93 19q-84 -141 -204 -237q-25 -19 -50.5 -36.5t-46.5 -27.5l-75 -103l16 3l43 5q61 0 102.5 -29.5t41.5 -68.5q0 -65 -100 -139t-197 -74q-29 0 -58 10 q-16 5 -29 11.5t-28 17.5l39 55q22 -17 52 -28q30 -9 69 -9q50 0 90 26q41 24 41 52t-40 53q-40 23 -95 23q-22 0 -30 -1.5t-13.5 -3t-12.5 -5.5l-20 14zM105 -20q-48 -25 -85 -29l4 5q17 3 27 5q31 8 56 26q-1 -3 -2 -7z" />
<glyph unicode="&#xe8;" horiz-adv-x="616" d="M166 627l38 -11l48 -4l18 1l34 4q47 37 76.5 86t29.5 88q0 29 -15.5 49t-40.5 20l-27 -6l-5 -2q-56 -46 -94 -100.5t-62 -124.5zM340 313l88 6q-54 -151 -185 -271t-216 -120q-63 0 -105.5 57.5t-42.5 147.5q0 140 64.5 300.5t171.5 287.5q102 119 221.5 192.5 t210.5 73.5q36 0 58 -20t22 -52q0 -47 -42.5 -112t-115.5 -123q-91 -72 -182 -116q-47 -22 -87.5 -34t-74.5 -12q-24 -58 -35.5 -117.5t-11.5 -124.5q0 -89 33 -135.5t94 -46.5h17q7 0 11 2q35 34 61.5 89t45.5 128zM252 1473l219 -41l190 -277l-149 29z" />
<glyph unicode="&#xe9;" horiz-adv-x="616" d="M166 627l38 -11l48 -4l18 1l34 4q47 37 76.5 86t29.5 88q0 29 -15.5 49t-40.5 20l-27 -6l-5 -2q-56 -46 -94 -100.5t-62 -124.5zM340 313l88 6q-54 -151 -185 -271t-216 -120q-63 0 -105.5 57.5t-42.5 147.5q0 140 64.5 300.5t171.5 287.5q102 119 221.5 192.5 t210.5 73.5q36 0 58 -20t22 -52q0 -47 -42.5 -112t-115.5 -123q-91 -72 -182 -116q-47 -22 -87.5 -34t-74.5 -12q-24 -58 -35.5 -117.5t-11.5 -124.5q0 -89 33 -135.5t94 -46.5h17q7 0 11 2q35 34 61.5 89t45.5 128zM340 1155l207 266l221 27l-297 -277z" />
<glyph unicode="&#xea;" horiz-adv-x="616" d="M166 627l38 -11l48 -4l18 1l34 4q47 37 76.5 86t29.5 88q0 29 -15.5 49t-40.5 20l-27 -6l-5 -2q-56 -46 -94 -100.5t-62 -124.5zM340 313l88 6q-54 -151 -185 -271t-216 -120q-63 0 -105.5 57.5t-42.5 147.5q0 140 64.5 300.5t171.5 287.5q102 119 221.5 192.5 t210.5 73.5q36 0 58 -20t22 -52q0 -47 -42.5 -112t-115.5 -123q-91 -72 -182 -116q-47 -22 -87.5 -34t-74.5 -12q-24 -58 -35.5 -117.5t-11.5 -124.5q0 -89 33 -135.5t94 -46.5h17q7 0 11 2q35 34 61.5 89t45.5 128zM485 1505h129l148 -303l-80 -47l-144 242l-274 -242 l-94 49z" />
<glyph unicode="&#xeb;" horiz-adv-x="616" d="M166 627l38 -11l48 -4l18 1l34 4q47 37 76.5 86t29.5 88q0 29 -15.5 49t-40.5 20l-27 -6l-5 -2q-56 -46 -94 -100.5t-62 -124.5zM340 313l88 6q-54 -151 -185 -271t-216 -120q-63 0 -105.5 57.5t-42.5 147.5q0 140 64.5 300.5t171.5 287.5q102 119 221.5 192.5 t210.5 73.5q36 0 58 -20t22 -52q0 -47 -42.5 -112t-115.5 -123q-91 -72 -182 -116q-47 -22 -87.5 -34t-74.5 -12q-24 -58 -35.5 -117.5t-11.5 -124.5q0 -89 33 -135.5t94 -46.5h17q7 0 11 2q35 34 61.5 89t45.5 128zM532 1241l142 148q41 -17 86 -28q45 -9 98 -9 q-25 -63 -83.5 -102.5t-125.5 -39.5q-20 0 -29.5 1t-27 6t-31.5 10.5t-29 13.5zM180 1241l139 148q39 -17 85.5 -27t99.5 -10q-25 -62 -83 -102t-124 -40q-20 0 -29.5 1t-27 6t-31.5 10.5t-29 13.5z" />
<glyph unicode="&#xec;" horiz-adv-x="455" d="M178 881q84 39 153 76l77 40q6 -1 7 -2l3 -6l-20 -45q-22 -50 -63 -135q-81 -174 -153 -363l-79 -218q-17 -59 -17 -85q0 -16 7.5 -27t19.5 -12q21 0 53 38t70 110l-31 -146l-109 -82q-48 -34 -81 -53q-65 -41 -93 -41q-25 0 -42 23.5t-17 60.5q0 62 121 352 q117 283 194 515zM170 1473l219 -41l190 -277l-149 29z" />
<glyph unicode="&#xed;" horiz-adv-x="455" d="M178 881q84 39 153 76l77 40q6 -1 7 -2l3 -6l-20 -45q-22 -50 -63 -135q-81 -174 -153 -363l-79 -218q-17 -59 -17 -85q0 -16 7.5 -27t19.5 -12q21 0 53 38t70 110l-31 -146l-109 -82q-48 -34 -81 -53q-65 -41 -93 -41q-25 0 -42 23.5t-17 60.5q0 62 121 352 q117 283 194 515zM258 1155l207 266l221 27l-297 -277z" />
<glyph unicode="&#xee;" horiz-adv-x="455" d="M178 881q84 39 153 76l77 40q6 -1 7 -2l3 -6l-20 -45q-22 -50 -63 -135q-81 -174 -153 -363l-79 -218q-17 -59 -17 -85q0 -16 7.5 -27t19.5 -12q21 0 53 38t70 110l-31 -146l-109 -82q-48 -34 -81 -53q-65 -41 -93 -41q-25 0 -42 23.5t-17 60.5q0 62 121 352 q117 283 194 515zM403 1505h129l148 -303l-80 -47l-144 242l-274 -242l-94 49z" />
<glyph unicode="&#xef;" horiz-adv-x="455" d="M178 881q84 39 153 76l77 40q6 -1 7 -2l3 -6l-20 -45q-22 -50 -63 -135q-81 -174 -153 -363l-79 -218q-17 -59 -17 -85q0 -16 7.5 -27t19.5 -12q21 0 53 38t70 110l-31 -146l-109 -82q-48 -34 -81 -53q-65 -41 -93 -41q-25 0 -42 23.5t-17 60.5q0 62 121 352 q117 283 194 515zM450 1241l142 148q41 -17 86 -28q45 -9 98 -9q-25 -63 -83.5 -102.5t-125.5 -39.5q-20 0 -29.5 1t-27 6t-31.5 10.5t-29 13.5zM98 1241l139 148q39 -17 85.5 -27t99.5 -10q-25 -62 -83 -102t-124 -40q-20 0 -29.5 1t-27 6t-31.5 10.5t-29 13.5z" />
<glyph unicode="&#xf0;" horiz-adv-x="768" d="M469 803q-14 44 -33.5 66t-44.5 22q-22 0 -57 -35t-76 -100q-80 -130 -132 -283.5t-52 -241.5q0 -29 9 -47q4 -6 7 -9q8 -7 21 -7q73 0 182.5 168.5t191.5 433.5l43 53l-2 13zM639 918l33 30q42 39 59 39l7 -4q3 -3 3 -8q0 -7 -55 -144l-104 -272l-63 -175l-73 -212 q-75 -228 -102 -276q-31 -62 -120 -155.5t-204 -180.5q-33 -25 -65.5 -39.5t-54.5 -14.5q-48 0 -86.5 36t-38.5 85q0 55 34 105q17 26 49.5 58.5t84.5 76.5l26 -10l-23 -57q-7 -28 -7 -46q0 -47 24.5 -79t63.5 -37q48 28 121 196q70 163 151 438h-4q-124 -156 -223.5 -243.5 t-149.5 -87.5q-32 0 -49.5 34t-17.5 101q0 99 51.5 251t138.5 291q106 173 246.5 289.5t228.5 116.5q27 0 54 -23.5t65 -82.5zM319 1472l64 1q12 -75 54 -109.5t118 -34.5q95 0 167 33.5t138 110.5h70q-91 -152 -182.5 -219.5t-202.5 -67.5q-112 0 -168 71q-28 36 -43 89 t-15 126z" />
<glyph unicode="&#xf1;" horiz-adv-x="938" d="M47 0q-58 -6 -108 -19t-93 -32l54 151l77 199q189 492 189 645q56 15 127 42.5t84 27.5q9 0 13.5 -6t6.5 -21q0 -48 -102 -293l-62 -153l-54 -138q-35 -91 -46 -122l14 -5q46 81 95 155.5t109.5 153t131.5 160.5t154 168l179 83q42 18 56 18q10 0 15 -8q6 -6 6 -21 q0 -38 -122 -291l-17 -37q-73 -151 -122 -283q-44 -124 -44 -173q0 -31 12 -48.5t35 -17.5q11 0 24 4q15 3 27 10v-32l-99 -58q-174 -102 -198 -102q-22 0 -37.5 20t-15.5 52q0 40 31 124q16 45 42 105t68 148l53 112q74 157 74 184q0 15 -6 22t-20 9q-66 0 -225 -211 t-306 -522zM934 1434l37 -15q-24 -52 -47.5 -89.5t-44.5 -57.5q-43 -41 -99 -41h-15h-12q-8 2 -13.5 2.5t-13 1.5t-19.5 6l-113 33l-35 9l-24 3q-28 0 -53 -18t-56 -62l-41 21q47 92 93 137t91 45l22 -3l35 -7l130 -35l38 -8l19 -2q37 0 67 20t54 60z" />
<glyph unicode="&#xf2;" horiz-adv-x="739" d="M410 1020l39 -6q-166 -153 -267.5 -350.5t-101.5 -362.5q0 -83 36 -130.5t99 -47.5q20 0 40 5.5t42 18.5q87 138 141 306t54 282q0 51 -16 79t-46 28q-12 0 -23 -3.5t-22 -13.5l-12 15l235 198q34 0 58 -51q10 -23 16 -55t6 -72q0 -149 -70.5 -318t-195.5 -313 q-115 -132 -224.5 -213.5t-166.5 -81.5q-69 0 -110.5 58t-41.5 158q0 204 141 438t390 432zM314 1473l219 -41l190 -277l-149 29z" />
<glyph unicode="&#xf3;" horiz-adv-x="739" d="M410 1020l39 -6q-166 -153 -267.5 -350.5t-101.5 -362.5q0 -83 36 -130.5t99 -47.5q20 0 40 5.5t42 18.5q87 138 141 306t54 282q0 51 -16 79t-46 28q-12 0 -23 -3.5t-22 -13.5l-12 15l235 198q34 0 58 -51q10 -23 16 -55t6 -72q0 -149 -70.5 -318t-195.5 -313 q-115 -132 -224.5 -213.5t-166.5 -81.5q-69 0 -110.5 58t-41.5 158q0 204 141 438t390 432zM402 1155l207 266l221 27l-297 -277z" />
<glyph unicode="&#xf4;" horiz-adv-x="739" d="M410 1020l39 -6q-166 -153 -267.5 -350.5t-101.5 -362.5q0 -83 36 -130.5t99 -47.5q20 0 40 5.5t42 18.5q87 138 141 306t54 282q0 51 -16 79t-46 28q-12 0 -23 -3.5t-22 -13.5l-12 15l235 198q34 0 58 -51q10 -23 16 -55t6 -72q0 -149 -70.5 -318t-195.5 -313 q-115 -132 -224.5 -213.5t-166.5 -81.5q-69 0 -110.5 58t-41.5 158q0 204 141 438t390 432zM547 1505h129l148 -303l-80 -47l-144 242l-274 -242l-94 49z" />
<glyph unicode="&#xf5;" horiz-adv-x="739" d="M410 1020l39 -6q-166 -153 -267.5 -350.5t-101.5 -362.5q0 -83 36 -130.5t99 -47.5q20 0 40 5.5t42 18.5q87 138 141 306t54 282q0 51 -16 79t-46 28q-12 0 -23 -3.5t-22 -13.5l-12 15l235 198q34 0 58 -51q10 -23 16 -55t6 -72q0 -149 -70.5 -318t-195.5 -313 q-115 -132 -224.5 -213.5t-166.5 -81.5q-69 0 -110.5 58t-41.5 158q0 204 141 438t390 432zM836 1434l37 -15q-24 -52 -47.5 -89.5t-44.5 -57.5q-43 -41 -99 -41h-15h-12q-8 2 -13.5 2.5t-13 1.5t-19.5 6l-113 33l-35 9l-24 3q-28 0 -53 -18t-56 -62l-41 21q47 92 93 137 t91 45l22 -3l35 -7l130 -35l38 -8l19 -2q37 0 67 20t54 60z" />
<glyph unicode="&#xf6;" horiz-adv-x="739" d="M410 1020l39 -6q-166 -153 -267.5 -350.5t-101.5 -362.5q0 -83 36 -130.5t99 -47.5q20 0 40 5.5t42 18.5q87 138 141 306t54 282q0 51 -16 79t-46 28q-12 0 -23 -3.5t-22 -13.5l-12 15l235 198q34 0 58 -51q10 -23 16 -55t6 -72q0 -149 -70.5 -318t-195.5 -313 q-115 -132 -224.5 -213.5t-166.5 -81.5q-69 0 -110.5 58t-41.5 158q0 204 141 438t390 432zM594 1241l142 148q41 -17 86 -28q45 -9 98 -9q-25 -63 -83.5 -102.5t-125.5 -39.5q-20 0 -29.5 1t-27 6t-31.5 10.5t-29 13.5zM242 1241l139 148q39 -17 85.5 -27t99.5 -10 q-25 -62 -83 -102t-124 -40q-20 0 -29.5 1t-27 6t-31.5 10.5t-29 13.5z" />
<glyph unicode="&#xf7;" horiz-adv-x="1706" d="M854 367q51 0 88 -37t37 -88t-36.5 -88t-88.5 -37q-51 0 -88 36t-37 89q0 51 37 88t88 37zM254 680h1198v-139h-1198v139zM854 1106q51 0 88 -37.5t37 -89.5q0 -51 -37 -88t-88 -37q-50 0 -87.5 36t-37.5 89q0 51 36.5 89t88.5 38z" />
<glyph unicode="&#xf8;" horiz-adv-x="739" d="M498 729l-396 -555q17 -29 46 -47q29 -16 63 -16q25 0 45.5 8.5t40.5 27.5q83 118 134.5 269.5t66.5 312.5zM410 1020l39 -6q-168 -155 -273.5 -354.5t-105.5 -346.5l1 -42l5 -45l411 586q-3 18 -12.5 27t-25.5 11q-13 0 -30 -7l-34 -18l-12 15l235 198l27 -16l102 143 h64l-135 -190q11 -18 17 -41q3 -12 4 -21.5t1 -29.5q0 -148 -54.5 -300.5t-158.5 -287.5q-116 -153 -249 -257t-195 -104q-20 0 -37 6t-39 19l-96 -139h-64l121 174q-17 32 -28 72q-9 38 -9 84q0 204 141 438t390 432z" />
<glyph unicode="&#xf9;" horiz-adv-x="901" d="M678 944l90 18l84 21l6 -6l-134 -307l-102 -247q-81 -207 -81 -255q0 -31 13.5 -46.5t43.5 -15.5h15q12 3 20 4t18 3q15 5 23 7v-30q-96 -71 -178 -115.5t-111 -44.5q-25 0 -43 21q-16 22 -16 55q0 64 30 167.5t88 234.5l-10 2q-161 -223 -288 -348t-197 -125 q-32 0 -49 17q-17 15 -17 48q0 28 17 82q16 61 47 133l37 92q76 189 113.5 302t37.5 153q0 21 -11.5 31t-33.5 10l-3 -1l-15 -1l-6 22q99 85 166.5 126.5t103.5 41.5q20 0 31.5 -13t11.5 -36q0 -31 -23 -103t-61 -163l-40 -98q-130 -319 -130 -363q0 -16 5.5 -23.5 t21.5 -9.5q74 0 237.5 221t288.5 539zM340 1473l219 -41l190 -277l-149 29z" />
<glyph unicode="&#xfa;" horiz-adv-x="901" d="M678 944l90 18l84 21l6 -6l-134 -307l-102 -247q-81 -207 -81 -255q0 -31 13.5 -46.5t43.5 -15.5h15q12 3 20 4t18 3q15 5 23 7v-30q-96 -71 -178 -115.5t-111 -44.5q-25 0 -43 21q-16 22 -16 55q0 64 30 167.5t88 234.5l-10 2q-161 -223 -288 -348t-197 -125 q-32 0 -49 17q-17 15 -17 48q0 28 17 82q16 61 47 133l37 92q76 189 113.5 302t37.5 153q0 21 -11.5 31t-33.5 10l-3 -1l-15 -1l-6 22q99 85 166.5 126.5t103.5 41.5q20 0 31.5 -13t11.5 -36q0 -31 -23 -103t-61 -163l-40 -98q-130 -319 -130 -363q0 -16 5.5 -23.5 t21.5 -9.5q74 0 237.5 221t288.5 539zM428 1155l207 266l221 27l-297 -277z" />
<glyph unicode="&#xfb;" horiz-adv-x="901" d="M678 944l90 18l84 21l6 -6l-134 -307l-102 -247q-81 -207 -81 -255q0 -31 13.5 -46.5t43.5 -15.5h15q12 3 20 4t18 3q15 5 23 7v-30q-96 -71 -178 -115.5t-111 -44.5q-25 0 -43 21q-16 22 -16 55q0 64 30 167.5t88 234.5l-10 2q-161 -223 -288 -348t-197 -125 q-32 0 -49 17q-17 15 -17 48q0 28 17 82q16 61 47 133l37 92q76 189 113.5 302t37.5 153q0 21 -11.5 31t-33.5 10l-3 -1l-15 -1l-6 22q99 85 166.5 126.5t103.5 41.5q20 0 31.5 -13t11.5 -36q0 -31 -23 -103t-61 -163l-40 -98q-130 -319 -130 -363q0 -16 5.5 -23.5 t21.5 -9.5q74 0 237.5 221t288.5 539zM573 1505h129l148 -303l-80 -47l-144 242l-274 -242l-94 49z" />
<glyph unicode="&#xfc;" horiz-adv-x="901" d="M678 944l90 18l84 21l6 -6l-134 -307l-102 -247q-81 -207 -81 -255q0 -31 13.5 -46.5t43.5 -15.5h15q12 3 20 4t18 3q15 5 23 7v-30q-96 -71 -178 -115.5t-111 -44.5q-25 0 -43 21q-16 22 -16 55q0 64 30 167.5t88 234.5l-10 2q-161 -223 -288 -348t-197 -125 q-32 0 -49 17q-17 15 -17 48q0 28 17 82q16 61 47 133l37 92q76 189 113.5 302t37.5 153q0 21 -11.5 31t-33.5 10l-3 -1l-15 -1l-6 22q99 85 166.5 126.5t103.5 41.5q20 0 31.5 -13t11.5 -36q0 -31 -23 -103t-61 -163l-40 -98q-130 -319 -130 -363q0 -16 5.5 -23.5 t21.5 -9.5q74 0 237.5 221t288.5 539zM620 1241l142 148q41 -17 86 -28q45 -9 98 -9q-25 -63 -83.5 -102.5t-125.5 -39.5q-20 0 -29.5 1t-27 6t-31.5 10.5t-29 13.5zM268 1241l139 148q39 -17 85.5 -27t99.5 -10q-25 -62 -83 -102t-124 -40q-20 0 -29.5 1t-27 6t-31.5 10.5 t-29 13.5z" />
<glyph unicode="&#xfd;" horiz-adv-x="455" d="M178 881q84 39 153 76l77 40q6 -1 7 -2l3 -6l-20 -45q-22 -50 -63 -135q-81 -174 -153 -363l-79 -218q-17 -59 -17 -85q0 -16 7.5 -27t19.5 -12q21 0 53 38t70 110l-31 -146l-109 -82q-48 -34 -81 -53q-65 -41 -93 -41q-25 0 -42 23.5t-17 60.5q0 62 121 352 q117 283 194 515z" />
<glyph unicode="&#xfe;" horiz-adv-x="692" d="M60 -58l-11 -1q-70 0 -121 35.5t-69 99.5q17 33 37.5 64.5t48.5 65.5q26 34 54.5 67t66.5 73l24 -12q-24 -30 -36.5 -55t-12.5 -50q0 -48 38 -80q39 -30 103 -30q69 0 119.5 34.5t50.5 77.5q0 58 -136 149l-11 7q-85 56 -119.5 103t-34.5 102q0 38 21 80.5t67 99.5 q82 99 176 157t166 58q66 0 119 -36.5t53 -76.5q0 -15 -38 -75l-47 -75l-72 -103l-27 8q15 23 22 45t7 37q0 54 -45 90q-21 18 -49.5 27.5t-63.5 9.5q-60 0 -109 -35t-49 -80q0 -33 29 -68q28 -31 133 -104l18 -13q121 -85 121 -161q0 -40 -29.5 -95.5t-97.5 -136.5 q-99 -117 -167 -160q-25 -16 -53 -27l-59 -81l16 3l43 5q61 0 102.5 -29.5t41.5 -68.5q0 -65 -100 -139t-197 -74q-29 0 -58 10q-16 5 -29 11.5t-28 17.5l39 55q22 -17 52 -28q30 -9 69 -9q50 0 90 26q41 24 41 52t-40 53q-40 23 -95 23q-22 0 -30 -1.5t-13.5 -3t-12.5 -5.5 l-20 14zM136 -42q-40 -16 -76 -16q16 2 25 3q28 5 50 16q0 -1 1 -3z" />
<glyph unicode="&#xff;" horiz-adv-x="858" d="M57 827q122 105 185 148t90 43q22 0 36.5 -20t14.5 -52q0 -50 -63 -205l-29 -73l-1 -3q-161 -406 -161 -454q0 -15 6 -23t23 -10q75 0 225.5 216t278.5 542q71 28 133 58l67 30l7 -3l3 -5q0 -5 -9 -26.5t-29 -61.5q-154 -312 -262 -626l-28 -81q-114 -337 -216 -463 q-81 -99 -208.5 -171t-201.5 -72q-41 0 -67.5 29.5t-26.5 78.5q0 60 46 126.5t140 141.5l13 -6q-14 -31 -22 -64q-3 -16 -5 -29t-2 -25q0 -47 20.5 -79.5t59.5 -52.5q87 63 168.5 233t185.5 509l-10 2q-71 -93 -137 -166q-70 -77 -138 -137q-136 -121 -188 -121 q-21 0 -36 21.5t-15 58.5t15.5 92.5t55.5 157.5l81 205q31 79 52 140q35 105 35 146q0 17 -9 27t-28 10l-20 -2l-20 -6zM653 1241l142 148q41 -17 86 -28q45 -9 98 -9q-25 -63 -83.5 -102.5t-125.5 -39.5q-20 0 -29.5 1t-27 6t-31.5 10.5t-29 13.5zM301 1241l139 148 q39 -17 85.5 -27t99.5 -10q-25 -62 -83 -102t-124 -40q-20 0 -29.5 1t-27 6t-31.5 10.5t-29 13.5z" />
<glyph unicode="&#x100;" horiz-adv-x="1290" d="M851 1795h539l-31 -139h-539zM496 621q57 -12 102 -18l82 -5h12l27 2q0 56 8 127l18 140q18 159 43 331q-28 -67 -60.5 -137.5t-70.5 -144.5q-78 -154 -161 -295zM815 1449l121 43l106 42q-58 -186 -96 -417l-24 -158q-15 -107 -22 -184.5t-7 -172.5l67 3q17 0 50 5l41 6 l-71 -47q-34 -21 -71 -37l-26 -6l-7 -111l-2 -83q0 -76 11.5 -104.5t38.5 -28.5q26 0 58 29.5t69 86.5l10 -41q-148 -187 -216 -251t-108 -64q-30 0 -50.5 35.5t-20.5 93.5q0 43 10 149q5 52 11.5 110t16.5 140l-62 -5l-60 -1l-79 1l-87 5q-231 -374 -376 -539t-239 -165 q-57 0 -90 36.5t-33 100.5q0 98 60 218q57 115 174 245l41 4q-69 -87 -107.5 -165t-38.5 -134q0 -42 20.5 -66t55.5 -24q71 0 177.5 108.5t297.5 384.5q-15 0 -28 0.5t-53 4.5q-20 0 -29 1l-51 9q73 34 132 67q69 39 126 76q166 281 262 492q48 107 73 183t25 125z" />
<glyph unicode="&#x101;" d="M349 1299h539l-31 -139h-539zM479 780q-13 45 -44 75t-62 30q-18 0 -48.5 -27.5t-66.5 -81.5q-79 -119 -140 -289q-57 -165 -57 -262q0 -37 9.5 -57.5t27.5 -20.5q36 0 113 85.5t151 216.5q18 31 70 153.5t94 202.5l-4 6zM590 195l6 -45q-80 -91 -163 -147t-128 -56 q-25 0 -40 19q-13 20 -13 54q0 54 23.5 136.5t72.5 189.5l-8 2q-135 -184 -256 -294.5t-184 -110.5q-33 0 -48.5 28t-15.5 84q0 94 37 213t104 246q60 113 125.5 198t137.5 143t163.5 101t124.5 43q24 0 56 -25.5t51 -64.5q25 10 57 32t39 24l8 -3q4 -5 4 -8 q0 -11 -44.5 -108t-77.5 -178q-39 -93 -66 -166t-50 -144q-38 -125 -38 -186q0 -14 1 -19.5t8 -16.5t22 -11q17 0 40.5 18t51.5 52z" />
<glyph unicode="&#x102;" horiz-adv-x="1290" d="M870 1942l64 1q12 -75 54 -109.5t118 -34.5q95 0 167 33.5t138 110.5h70q-91 -152 -182.5 -219.5t-202.5 -67.5q-112 0 -168 71q-28 36 -43 89t-15 126zM496 621q57 -12 102 -18l82 -5h12l27 2q0 56 8 127l18 140q18 159 43 331q-28 -67 -60.5 -137.5t-70.5 -144.5 q-78 -154 -161 -295zM815 1449l121 43l106 42q-58 -186 -96 -417l-24 -158q-15 -107 -22 -184.5t-7 -172.5l67 3q17 0 50 5l41 6l-71 -47q-34 -21 -71 -37l-26 -6l-7 -111l-2 -83q0 -76 11.5 -104.5t38.5 -28.5q26 0 58 29.5t69 86.5l10 -41q-148 -187 -216 -251t-108 -64 q-30 0 -50.5 35.5t-20.5 93.5q0 43 10 149q5 52 11.5 110t16.5 140l-62 -5l-60 -1l-79 1l-87 5q-231 -374 -376 -539t-239 -165q-57 0 -90 36.5t-33 100.5q0 98 60 218q57 115 174 245l41 4q-69 -87 -107.5 -165t-38.5 -134q0 -42 20.5 -66t55.5 -24q71 0 177.5 108.5 t297.5 384.5q-15 0 -28 0.5t-53 4.5q-20 0 -29 1l-51 9q73 34 132 67q69 39 126 76q166 281 262 492q48 107 73 183t25 125z" />
<glyph unicode="&#x103;" d="M368 1446l64 1q12 -75 54 -109.5t118 -34.5q95 0 167 33.5t138 110.5h70q-91 -152 -182.5 -219.5t-202.5 -67.5q-112 0 -168 71q-28 36 -43 89t-15 126zM479 780q-13 45 -44 75t-62 30q-18 0 -48.5 -27.5t-66.5 -81.5q-79 -119 -140 -289q-57 -165 -57 -262 q0 -37 9.5 -57.5t27.5 -20.5q36 0 113 85.5t151 216.5q18 31 70 153.5t94 202.5l-4 6zM590 195l6 -45q-80 -91 -163 -147t-128 -56q-25 0 -40 19q-13 20 -13 54q0 54 23.5 136.5t72.5 189.5l-8 2q-135 -184 -256 -294.5t-184 -110.5q-33 0 -48.5 28t-15.5 84q0 94 37 213 t104 246q60 113 125.5 198t137.5 143t163.5 101t124.5 43q24 0 56 -25.5t51 -64.5q25 10 57 32t39 24l8 -3q4 -5 4 -8q0 -11 -44.5 -108t-77.5 -178q-39 -93 -66 -166t-50 -144q-38 -125 -38 -186q0 -14 1 -19.5t8 -16.5t22 -11q17 0 40.5 18t51.5 52z" />
<glyph unicode="&#x104;" horiz-adv-x="1290" d="M-343 -201h47q-84 -65 -129 -135t-45 -138q0 -51 24 -77.5t74 -26.5q28 0 54 16q26 14 61 51l23 -28q-58 -70 -119 -107q-29 -17 -59.5 -27t-59.5 -10q-55 0 -91 40.5t-36 103.5q0 81 58 159t198 179zM496 621q57 -12 102 -18l82 -5h12l27 2q0 56 8 127l18 140 q18 159 43 331q-28 -67 -60.5 -137.5t-70.5 -144.5q-78 -154 -161 -295zM815 1449l121 43l106 42q-58 -186 -96 -417l-24 -158q-15 -107 -22 -184.5t-7 -172.5l67 3q17 0 50 5l41 6l-71 -47q-34 -21 -71 -37l-26 -6l-7 -111l-2 -83q0 -76 11.5 -104.5t38.5 -28.5 q26 0 58 29.5t69 86.5l10 -41q-148 -187 -216 -251t-108 -64q-30 0 -50.5 35.5t-20.5 93.5q0 43 10 149q5 52 11.5 110t16.5 140l-62 -5l-60 -1l-79 1l-87 5q-231 -374 -376 -539t-239 -165q-57 0 -90 36.5t-33 100.5q0 98 60 218q57 115 174 245l41 4q-69 -87 -107.5 -165 t-38.5 -134q0 -42 20.5 -66t55.5 -24q71 0 177.5 108.5t297.5 384.5q-15 0 -28 0.5t-53 4.5q-20 0 -29 1l-51 9q73 34 132 67q69 39 126 76q166 281 262 492q48 107 73 183t25 125z" />
<glyph unicode="&#x105;" d="M-244 -41h47q-84 -65 -129 -135t-45 -138q0 -51 24 -77.5t74 -26.5q28 0 54 16q26 14 61 51l23 -28q-58 -70 -119 -107q-29 -17 -59.5 -27t-59.5 -10q-55 0 -91 40.5t-36 103.5q0 81 58 159t198 179zM479 780q-13 45 -44 75t-62 30q-18 0 -48.5 -27.5t-66.5 -81.5 q-79 -119 -140 -289q-57 -165 -57 -262q0 -37 9.5 -57.5t27.5 -20.5q36 0 113 85.5t151 216.5q18 31 70 153.5t94 202.5l-4 6zM590 195l6 -45q-80 -91 -163 -147t-128 -56q-25 0 -40 19q-13 20 -13 54q0 54 23.5 136.5t72.5 189.5l-8 2q-135 -184 -256 -294.5t-184 -110.5 q-33 0 -48.5 28t-15.5 84q0 94 37 213t104 246q60 113 125.5 198t137.5 143t163.5 101t124.5 43q24 0 56 -25.5t51 -64.5q25 10 57 32t39 24l8 -3q4 -5 4 -8q0 -11 -44.5 -108t-77.5 -178q-39 -93 -66 -166t-50 -144q-38 -125 -38 -186q0 -14 1 -19.5t8 -16.5t22 -11 q17 0 40.5 18t51.5 52z" />
<glyph unicode="&#x106;" horiz-adv-x="1118" d="M825 449l105 18q-182 -261 -354.5 -393.5t-331.5 -132.5q-131 0 -207 83t-76 224q0 148 75 322t220 358q202 256 429 411.5t386 155.5q61 0 98 -34t37 -91q0 -89 -75 -202q-37 -54 -96.5 -118.5t-140 -137t-174.5 -130.5q-86 -52 -185 -92l-21 58q206 57 348 191.5 t142 256.5q0 63 -44 106.5t-110 43.5q-54 0 -122.5 -36t-143.5 -104q-96 -86 -183.5 -210t-152.5 -265q-36 -80 -56 -161t-20 -144q0 -150 73.5 -231.5t211.5 -81.5q42 0 75.5 6.5t59.5 19.5q85 85 142 160.5t91 149.5zM846 1653l207 266l221 27l-297 -277z" />
<glyph unicode="&#x107;" horiz-adv-x="616" d="M313 262l93 19q-84 -141 -204.5 -236.5t-199.5 -95.5q-54 0 -88.5 53t-34.5 141q0 172 87.5 351.5t250.5 336.5q73 71 189.5 123t175.5 52q13 0 22 -12q4 -6 6 -13t2 -18q0 -33 -22 -101.5t-62 -153.5l-40 -17q-89 -38 -138 -64q30 51 48 102t18 90q0 27 -11 43.5 t-30 16.5q-13 0 -23.5 -4t-24.5 -16q-26 -21 -57 -62q-73 -100 -129.5 -265t-56.5 -274q0 -73 27 -114.5t75 -41.5h17q32 23 61 66q26 39 49 94zM340 1155l207 266l221 27l-297 -277z" />
<glyph unicode="&#x108;" horiz-adv-x="1118" d="M1146 1967h129l148 -303l-80 -47l-144 242l-274 -242l-94 49zM825 449l105 18q-182 -261 -354.5 -393.5t-331.5 -132.5q-131 0 -207 83t-76 224q0 148 75 322t220 358q202 256 429 411.5t386 155.5q61 0 98 -34t37 -91q0 -89 -75 -202q-37 -54 -96.5 -118.5t-140 -137 t-174.5 -130.5q-86 -52 -185 -92l-21 58q206 57 348 191.5t142 256.5q0 63 -44 106.5t-110 43.5q-54 0 -122.5 -36t-143.5 -104q-96 -86 -183.5 -210t-152.5 -265q-36 -80 -56 -161t-20 -144q0 -150 73.5 -231.5t211.5 -81.5q42 0 75.5 6.5t59.5 19.5q85 85 142 160.5 t91 149.5z" />
<glyph unicode="&#x109;" horiz-adv-x="616" d="M667 1510h129l148 -303l-80 -47l-144 242l-274 -242l-94 49zM313 262l93 19q-84 -141 -204.5 -236.5t-199.5 -95.5q-54 0 -88.5 53t-34.5 141q0 172 87.5 351.5t250.5 336.5q73 71 189.5 123t175.5 52q13 0 22 -12q4 -6 6 -13t2 -18q0 -33 -22 -101.5t-62 -153.5l-40 -17 q-89 -38 -138 -64q30 51 48 102t18 90q0 27 -11 43.5t-30 16.5q-13 0 -23.5 -4t-24.5 -16q-26 -21 -57 -62q-73 -100 -129.5 -265t-56.5 -274q0 -73 27 -114.5t75 -41.5h17q32 23 61 66q26 39 49 94z" />
<glyph unicode="&#x10a;" horiz-adv-x="1118" d="M1147 1845q45 0 80 -33.5t35 -79.5q0 -48 -33.5 -81.5t-81.5 -33.5q-45 0 -79 33.5t-34 81.5q0 44 34.5 78.5t78.5 34.5zM825 449l105 18q-182 -261 -354.5 -393.5t-331.5 -132.5q-131 0 -207 83t-76 224q0 148 75 322t220 358q202 256 429 411.5t386 155.5q61 0 98 -34 t37 -91q0 -89 -75 -202q-37 -54 -96.5 -118.5t-140 -137t-174.5 -130.5q-86 -52 -185 -92l-21 58q206 57 348 191.5t142 256.5q0 63 -44 106.5t-110 43.5q-54 0 -122.5 -36t-143.5 -104q-96 -86 -183.5 -210t-152.5 -265q-36 -80 -56 -161t-20 -144q0 -150 73.5 -231.5 t211.5 -81.5q42 0 75.5 6.5t59.5 19.5q85 85 142 160.5t91 149.5z" />
<glyph unicode="&#x10b;" horiz-adv-x="616" d="M669 1388q45 0 80 -33.5t35 -79.5q0 -48 -33.5 -81.5t-81.5 -33.5q-45 0 -79 33.5t-34 81.5q0 44 34.5 78.5t78.5 34.5zM313 262l93 19q-84 -141 -204.5 -236.5t-199.5 -95.5q-54 0 -88.5 53t-34.5 141q0 172 87.5 351.5t250.5 336.5q73 71 189.5 123t175.5 52 q13 0 22 -12q4 -6 6 -13t2 -18q0 -33 -22 -101.5t-62 -153.5l-40 -17q-89 -38 -138 -64q30 51 48 102t18 90q0 27 -11 43.5t-30 16.5q-13 0 -23.5 -4t-24.5 -16q-26 -21 -57 -62q-73 -100 -129.5 -265t-56.5 -274q0 -73 27 -114.5t75 -41.5h17q32 23 61 66q26 39 49 94z" />
<glyph unicode="&#x10c;" horiz-adv-x="1118" d="M825 449l105 18q-182 -261 -354.5 -393.5t-331.5 -132.5q-131 0 -207 83t-76 224q0 148 75 322t220 358q202 256 429 411.5t386 155.5q61 0 98 -34t37 -91q0 -89 -75 -202q-37 -54 -96.5 -118.5t-140 -137t-174.5 -130.5q-86 -52 -185 -92l-21 58q206 57 348 191.5 t142 256.5q0 63 -44 106.5t-110 43.5q-54 0 -122.5 -36t-143.5 -104q-96 -86 -183.5 -210t-152.5 -265q-36 -80 -56 -161t-20 -144q0 -150 73.5 -231.5t211.5 -81.5q42 0 75.5 6.5t59.5 19.5q85 85 142 160.5t91 149.5zM1048 1653h-129l-147 303l80 47l143 -241l275 241 l94 -49z" />
<glyph unicode="&#x10d;" horiz-adv-x="616" d="M313 262l93 19q-84 -141 -204.5 -236.5t-199.5 -95.5q-54 0 -88.5 53t-34.5 141q0 172 87.5 351.5t250.5 336.5q73 71 189.5 123t175.5 52q13 0 22 -12q4 -6 6 -13t2 -18q0 -33 -22 -101.5t-62 -153.5l-40 -17q-89 -38 -138 -64q30 51 48 102t18 90q0 27 -11 43.5 t-30 16.5q-13 0 -23.5 -4t-24.5 -16q-26 -21 -57 -62q-73 -100 -129.5 -265t-56.5 -274q0 -73 27 -114.5t75 -41.5h17q32 23 61 66q26 39 49 94zM542 1155h-129l-147 303l80 47l143 -241l275 241l94 -49z" />
<glyph unicode="&#x10e;" horiz-adv-x="2529" />
<glyph unicode="&#x10f;" horiz-adv-x="2529" />
<glyph unicode="&#x110;" horiz-adv-x="2529" />
<glyph unicode="&#x111;" horiz-adv-x="862" d="M477 768q-23 52 -52 81.5t-56 29.5q-30 0 -76.5 -63.5t-105 -187t-95.5 -242t-37 -185.5q0 -26 10.5 -40t30.5 -14q63 0 194.5 185t239.5 456l-4 7zM950 1464l-106 -280h172l-19 -58h-176q-67 -167 -120.5 -313.5t-97.5 -285.5q-83 -266 -83 -345q0 -23 8 -35t23 -12 t35 11t41 30l2 -41q-85 -91 -161 -142.5t-126 -51.5q-24 0 -37.5 17.5t-13.5 49.5q0 52 28 155q14 55 33 114t47 133l-8 4q-142 -213 -272.5 -339t-206.5 -126q-36 0 -55 25t-19 73q0 64 17 139.5t54 170.5q69 185 177 331q96 129 233 222.5t205 93.5q17 0 34.5 -12 t41.5 -41q8 43 21 89l28 86h-190l20 58h189q26 73 49 163l6 21q54 14 109 37q36 15 59 26.5t59 32.5z" />
<glyph unicode="&#x112;" horiz-adv-x="1096" d="M703 1756h539l-31 -139h-539zM768 436l98 13q-120 -230 -292.5 -367t-333.5 -137q-116 0 -195.5 75t-79.5 189q0 141 135.5 283.5t370.5 240.5q-94 35 -138 82t-44 113q0 85 72 178t247 231q112 89 174 121q30 15 58 23t53 8q82 0 144.5 -45t62.5 -98q0 -67 -64 -145 t-190 -167l-33 17q50 35 76 69.5t26 67.5q0 50 -52 90.5t-120 40.5q-21 0 -31 -1t-29 -7q-29 -6 -56 -23q-63 -58 -99 -120q-16 -29 -25 -58t-9 -53q0 -96 103.5 -165t260.5 -69h19q-54 -34 -104 -70l-32 -23q-21 -15 -51 -40l-63 9l-45 3q-35 0 -74 -10q-41 -9 -78 -28 q-110 -54 -181 -148t-71 -182q0 -82 60 -131t163 -49q74 0 136 15t114 48q38 53 67 107q26 48 50 112z" />
<glyph unicode="&#x113;" horiz-adv-x="616" d="M372 1299h539l-31 -139h-539zM166 627l38 -11l48 -4l18 1l34 4q47 37 76.5 86t29.5 88q0 29 -15.5 49t-40.5 20l-27 -6l-5 -2q-56 -46 -94 -100.5t-62 -124.5zM340 313l88 6q-54 -151 -185 -271t-216 -120q-63 0 -105.5 57.5t-42.5 147.5q0 140 64.5 300.5t171.5 287.5 q102 119 221.5 192.5t210.5 73.5q36 0 58 -20t22 -52q0 -47 -42.5 -112t-115.5 -123q-91 -72 -182 -116q-47 -22 -87.5 -34t-74.5 -12q-24 -58 -35.5 -117.5t-11.5 -124.5q0 -89 33 -135.5t94 -46.5h17q7 0 11 2q35 34 61.5 89t45.5 128z" />
<glyph unicode="&#x114;" horiz-adv-x="1096" d="M723 1903l64 1q12 -75 54 -109.5t118 -34.5q95 0 167 33.5t138 110.5h70q-91 -152 -182.5 -219.5t-202.5 -67.5q-112 0 -168 71q-28 36 -43 89t-15 126zM768 436l98 13q-120 -230 -292.5 -367t-333.5 -137q-116 0 -195.5 75t-79.5 189q0 141 135.5 283.5t370.5 240.5 q-94 35 -138 82t-44 113q0 85 72 178t247 231q112 89 174 121q30 15 58 23t53 8q82 0 144.5 -45t62.5 -98q0 -67 -64 -145t-190 -167l-33 17q50 35 76 69.5t26 67.5q0 50 -52 90.5t-120 40.5q-21 0 -31 -1t-29 -7q-29 -6 -56 -23q-63 -58 -99 -120q-16 -29 -25 -58t-9 -53 q0 -96 103.5 -165t260.5 -69h19q-54 -34 -104 -70l-32 -23q-21 -15 -51 -40l-63 9l-45 3q-35 0 -74 -10q-41 -9 -78 -28q-110 -54 -181 -148t-71 -182q0 -82 60 -131t163 -49q74 0 136 15t114 48q38 53 67 107q26 48 50 112z" />
<glyph unicode="&#x115;" horiz-adv-x="616" d="M391 1446l64 1q12 -75 54 -109.5t118 -34.5q95 0 167 33.5t138 110.5h70q-91 -152 -182.5 -219.5t-202.5 -67.5q-112 0 -168 71q-28 36 -43 89t-15 126zM166 627l38 -11l48 -4l18 1l34 4q47 37 76.5 86t29.5 88q0 29 -15.5 49t-40.5 20l-27 -6l-5 -2q-56 -46 -94 -100.5 t-62 -124.5zM340 313l88 6q-54 -151 -185 -271t-216 -120q-63 0 -105.5 57.5t-42.5 147.5q0 140 64.5 300.5t171.5 287.5q102 119 221.5 192.5t210.5 73.5q36 0 58 -20t22 -52q0 -47 -42.5 -112t-115.5 -123q-91 -72 -182 -116q-47 -22 -87.5 -34t-74.5 -12 q-24 -58 -35.5 -117.5t-11.5 -124.5q0 -89 33 -135.5t94 -46.5h17q7 0 11 2q35 34 61.5 89t45.5 128z" />
<glyph unicode="&#x116;" horiz-adv-x="1096" d="M971 1845q45 0 80 -33.5t35 -79.5q0 -48 -33.5 -81.5t-81.5 -33.5q-45 0 -79 33.5t-34 81.5q0 44 34.5 78.5t78.5 34.5zM768 436l98 13q-120 -230 -292.5 -367t-333.5 -137q-116 0 -195.5 75t-79.5 189q0 141 135.5 283.5t370.5 240.5q-94 35 -138 82t-44 113 q0 85 72 178t247 231q112 89 174 121q30 15 58 23t53 8q82 0 144.5 -45t62.5 -98q0 -67 -64 -145t-190 -167l-33 17q50 35 76 69.5t26 67.5q0 50 -52 90.5t-120 40.5q-21 0 -31 -1t-29 -7q-29 -6 -56 -23q-63 -58 -99 -120q-16 -29 -25 -58t-9 -53q0 -96 103.5 -165 t260.5 -69h19q-54 -34 -104 -70l-32 -23q-21 -15 -51 -40l-63 9l-45 3q-35 0 -74 -10q-41 -9 -78 -28q-110 -54 -181 -148t-71 -182q0 -82 60 -131t163 -49q74 0 136 15t114 48q38 53 67 107q26 48 50 112z" />
<glyph unicode="&#x117;" horiz-adv-x="616" d="M640 1388q45 0 80 -33.5t35 -79.5q0 -48 -33.5 -81.5t-81.5 -33.5q-45 0 -79 33.5t-34 81.5q0 44 34.5 78.5t78.5 34.5zM166 627l38 -11l48 -4l18 1l34 4q47 37 76.5 86t29.5 88q0 29 -15.5 49t-40.5 20l-27 -6l-5 -2q-56 -46 -94 -100.5t-62 -124.5zM340 313l88 6 q-54 -151 -185 -271t-216 -120q-63 0 -105.5 57.5t-42.5 147.5q0 140 64.5 300.5t171.5 287.5q102 119 221.5 192.5t210.5 73.5q36 0 58 -20t22 -52q0 -47 -42.5 -112t-115.5 -123q-91 -72 -182 -116q-47 -22 -87.5 -34t-74.5 -12q-24 -58 -35.5 -117.5t-11.5 -124.5 q0 -89 33 -135.5t94 -46.5h17q7 0 11 2q35 34 61.5 89t45.5 128z" />
<glyph unicode="&#x118;" horiz-adv-x="1096" d="M96 -39h47q-84 -65 -129 -135t-45 -138q0 -51 24 -77.5t74 -26.5q28 0 54 16q26 14 61 51l23 -28q-58 -70 -119 -107q-29 -17 -59.5 -27t-59.5 -10q-55 0 -91 40.5t-36 103.5q0 81 58 159t198 179zM768 436l98 13q-120 -230 -292.5 -367t-333.5 -137q-116 0 -195.5 75 t-79.5 189q0 141 135.5 283.5t370.5 240.5q-94 35 -138 82t-44 113q0 85 72 178t247 231q112 89 174 121q30 15 58 23t53 8q82 0 144.5 -45t62.5 -98q0 -67 -64 -145t-190 -167l-33 17q50 35 76 69.5t26 67.5q0 50 -52 90.5t-120 40.5q-21 0 -31 -1t-29 -7q-29 -6 -56 -23 q-63 -58 -99 -120q-16 -29 -25 -58t-9 -53q0 -96 103.5 -165t260.5 -69h19q-54 -34 -104 -70l-32 -23q-21 -15 -51 -40l-63 9l-45 3q-35 0 -74 -10q-41 -9 -78 -28q-110 -54 -181 -148t-71 -182q0 -82 60 -131t163 -49q74 0 136 15t114 48q38 53 67 107q26 48 50 112z" />
<glyph unicode="&#x119;" horiz-adv-x="616" d="M-140 -56h47q-84 -65 -129 -135t-45 -138q0 -51 24 -77.5t74 -26.5q28 0 54 16q26 14 61 51l23 -28q-58 -70 -119 -107q-29 -17 -59.5 -27t-59.5 -10q-55 0 -91 40.5t-36 103.5q0 81 58 159t198 179zM166 627l38 -11l48 -4l18 1l34 4q47 37 76.5 86t29.5 88 q0 29 -15.5 49t-40.5 20l-27 -6l-5 -2q-56 -46 -94 -100.5t-62 -124.5zM340 313l88 6q-54 -151 -185 -271t-216 -120q-63 0 -105.5 57.5t-42.5 147.5q0 140 64.5 300.5t171.5 287.5q102 119 221.5 192.5t210.5 73.5q36 0 58 -20t22 -52q0 -47 -42.5 -112t-115.5 -123 q-91 -72 -182 -116q-47 -22 -87.5 -34t-74.5 -12q-24 -58 -35.5 -117.5t-11.5 -124.5q0 -89 33 -135.5t94 -46.5h17q7 0 11 2q35 34 61.5 89t45.5 128z" />
<glyph unicode="&#x11a;" horiz-adv-x="1096" d="M1013 1617h-129l-147 303l80 47l143 -241l275 241l94 -49zM768 436l98 13q-120 -230 -292.5 -367t-333.5 -137q-116 0 -195.5 75t-79.5 189q0 141 135.5 283.5t370.5 240.5q-94 35 -138 82t-44 113q0 85 72 178t247 231q112 89 174 121q30 15 58 23t53 8q82 0 144.5 -45 t62.5 -98q0 -67 -64 -145t-190 -167l-33 17q50 35 76 69.5t26 67.5q0 50 -52 90.5t-120 40.5q-21 0 -31 -1t-29 -7q-29 -6 -56 -23q-63 -58 -99 -120q-16 -29 -25 -58t-9 -53q0 -96 103.5 -165t260.5 -69h19q-54 -34 -104 -70l-32 -23q-21 -15 -51 -40l-63 9l-45 3 q-35 0 -74 -10q-41 -9 -78 -28q-110 -54 -181 -148t-71 -182q0 -82 60 -131t163 -49q74 0 136 15t114 48q38 53 67 107q26 48 50 112z" />
<glyph unicode="&#x11b;" horiz-adv-x="616" d="M682 1160h-129l-147 303l80 47l143 -241l275 241l94 -49zM166 627l38 -11l48 -4l18 1l34 4q47 37 76.5 86t29.5 88q0 29 -15.5 49t-40.5 20l-27 -6l-5 -2q-56 -46 -94 -100.5t-62 -124.5zM340 313l88 6q-54 -151 -185 -271t-216 -120q-63 0 -105.5 57.5t-42.5 147.5 q0 140 64.5 300.5t171.5 287.5q102 119 221.5 192.5t210.5 73.5q36 0 58 -20t22 -52q0 -47 -42.5 -112t-115.5 -123q-91 -72 -182 -116q-47 -22 -87.5 -34t-74.5 -12q-24 -58 -35.5 -117.5t-11.5 -124.5q0 -89 33 -135.5t94 -46.5h17q7 0 11 2q35 34 61.5 89t45.5 128z" />
<glyph unicode="&#x11c;" horiz-adv-x="1219" d="M1085 1973h129l148 -303l-80 -47l-144 242l-274 -242l-94 49zM272 -78l-5 -31l-1 -30q0 -54 20.5 -98t63.5 -78q117 74 243 393q73 182 126 289l-8 6q-120 -192 -231 -308q-107 -110 -208 -143zM870 930h-55q70 63 112 137t42 137q0 62 -36.5 99.5t-96.5 37.5 q-72 0 -153.5 -45t-168.5 -137q-150 -157 -244 -368.5t-94 -387.5q0 -135 57 -213.5t150 -78.5h16q13 3 25 5t33 11q72 69 162.5 207t166.5 302q-34 5 -70 8l-59 6q-29 0 -48 1q-74 4 -83 4l185 121q100 -15 190 -24q28 0 110 -7q47 -4 66 -4q-119 -130 -208 -378l-27 -74 q-116 -309 -254 -472t-346 -259q-22 36 -33 78q-10 45 -10 96q0 48 9 96.5t30 95.5q-59 0 -105.5 26t-85.5 78q-72 96 -72 251q0 203 139.5 460t366.5 461q156 138 298 219.5t231 81.5q68 0 112.5 -38.5t44.5 -100.5q0 -72 -82 -193.5t-215 -238.5z" />
<glyph unicode="&#x11d;" horiz-adv-x="768" d="M599 1510h129l148 -303l-80 -47l-144 242l-274 -242l-94 49zM469 803q-14 44 -33.5 66t-44.5 22q-22 0 -57 -35t-76 -100q-80 -130 -132 -283.5t-52 -241.5q0 -29 9 -47q4 -6 7 -9q8 -7 21 -7q73 0 182.5 168.5t191.5 433.5l43 53l-2 13zM639 918l33 30q42 39 59 39l7 -4 q3 -3 3 -8q0 -7 -55 -144l-104 -272l-63 -175l-73 -212q-75 -228 -102 -276q-31 -62 -120 -155.5t-204 -180.5q-33 -25 -65.5 -39.5t-54.5 -14.5q-48 0 -86.5 36t-38.5 85q0 55 34 105q17 26 49.5 58.5t84.5 76.5l26 -10l-23 -57q-7 -28 -7 -46q0 -47 24.5 -79t63.5 -37 q48 28 121 196q70 163 151 438h-4q-124 -156 -223.5 -243.5t-149.5 -87.5q-32 0 -49.5 34t-17.5 101q0 99 51.5 251t138.5 291q106 173 246.5 289.5t228.5 116.5q27 0 54 -23.5t65 -82.5z" />
<glyph unicode="&#x11e;" horiz-adv-x="1219" d="M272 -78l-5 -31l-1 -30q0 -54 20.5 -98t63.5 -78q117 74 243 393q73 182 126 289l-8 6q-120 -192 -231 -308q-107 -110 -208 -143zM870 930h-55q70 63 112 137t42 137q0 62 -36.5 99.5t-96.5 37.5q-72 0 -153.5 -45t-168.5 -137q-150 -157 -244 -368.5t-94 -387.5 q0 -135 57 -213.5t150 -78.5h16q13 3 25 5t33 11q72 69 162.5 207t166.5 302q-34 5 -70 8l-59 6q-29 0 -48 1q-74 4 -83 4l185 121q100 -15 190 -24q28 0 110 -7q47 -4 66 -4q-119 -130 -208 -378l-27 -74q-116 -309 -254 -472t-346 -259q-22 36 -33 78q-10 45 -10 96 q0 48 9 96.5t30 95.5q-59 0 -105.5 26t-85.5 78q-72 96 -72 251q0 203 139.5 460t366.5 461q156 138 298 219.5t231 81.5q68 0 112.5 -38.5t44.5 -100.5q0 -72 -82 -193.5t-215 -238.5zM716 1970l64 1q12 -75 54 -109.5t118 -34.5q95 0 167 33.5t138 110.5h70 q-91 -152 -182.5 -219.5t-202.5 -67.5q-112 0 -168 71q-28 36 -43 89t-15 126z" />
<glyph unicode="&#x11f;" horiz-adv-x="768" d="M469 803q-14 44 -33.5 66t-44.5 22q-22 0 -57 -35t-76 -100q-80 -130 -132 -283.5t-52 -241.5q0 -29 9 -47q4 -6 7 -9q8 -7 21 -7q73 0 182.5 168.5t191.5 433.5l43 53l-2 13zM639 918l33 30q42 39 59 39l7 -4q3 -3 3 -8q0 -7 -55 -144l-104 -272l-63 -175l-73 -212 q-75 -228 -102 -276q-31 -62 -120 -155.5t-204 -180.5q-33 -25 -65.5 -39.5t-54.5 -14.5q-48 0 -86.5 36t-38.5 85q0 55 34 105q17 26 49.5 58.5t84.5 76.5l26 -10l-23 -57q-7 -28 -7 -46q0 -47 24.5 -79t63.5 -37q48 28 121 196q70 163 151 438h-4q-124 -156 -223.5 -243.5 t-149.5 -87.5q-32 0 -49.5 34t-17.5 101q0 99 51.5 251t138.5 291q106 173 246.5 289.5t228.5 116.5q27 0 54 -23.5t65 -82.5zM319 1472l64 1q12 -75 54 -109.5t118 -34.5q95 0 167 33.5t138 110.5h70q-91 -152 -182.5 -219.5t-202.5 -67.5q-112 0 -168 71q-28 36 -43 89 t-15 126z" />
<glyph unicode="&#x120;" horiz-adv-x="1219" d="M1086 1851q45 0 80 -33.5t35 -79.5q0 -48 -33.5 -81.5t-81.5 -33.5q-45 0 -79 33.5t-34 81.5q0 44 34.5 78.5t78.5 34.5zM272 -78l-5 -31l-1 -30q0 -54 20.5 -98t63.5 -78q117 74 243 393q73 182 126 289l-8 6q-120 -192 -231 -308q-107 -110 -208 -143zM870 930h-55 q70 63 112 137t42 137q0 62 -36.5 99.5t-96.5 37.5q-72 0 -153.5 -45t-168.5 -137q-150 -157 -244 -368.5t-94 -387.5q0 -135 57 -213.5t150 -78.5h16q13 3 25 5t33 11q72 69 162.5 207t166.5 302q-34 5 -70 8l-59 6q-29 0 -48 1q-74 4 -83 4l185 121q100 -15 190 -24 q28 0 110 -7q47 -4 66 -4q-119 -130 -208 -378l-27 -74q-116 -309 -254 -472t-346 -259q-22 36 -33 78q-10 45 -10 96q0 48 9 96.5t30 95.5q-59 0 -105.5 26t-85.5 78q-72 96 -72 251q0 203 139.5 460t366.5 461q156 138 298 219.5t231 81.5q68 0 112.5 -38.5t44.5 -100.5 q0 -72 -82 -193.5t-215 -238.5z" />
<glyph unicode="&#x121;" horiz-adv-x="768" d="M601 1388q45 0 80 -33.5t35 -79.5q0 -48 -33.5 -81.5t-81.5 -33.5q-45 0 -79 33.5t-34 81.5q0 44 34.5 78.5t78.5 34.5zM469 803q-14 44 -33.5 66t-44.5 22q-22 0 -57 -35t-76 -100q-80 -130 -132 -283.5t-52 -241.5q0 -29 9 -47q4 -6 7 -9q8 -7 21 -7q73 0 182.5 168.5 t191.5 433.5l43 53l-2 13zM639 918l33 30q42 39 59 39l7 -4q3 -3 3 -8q0 -7 -55 -144l-104 -272l-63 -175l-73 -212q-75 -228 -102 -276q-31 -62 -120 -155.5t-204 -180.5q-33 -25 -65.5 -39.5t-54.5 -14.5q-48 0 -86.5 36t-38.5 85q0 55 34 105q17 26 49.5 58.5t84.5 76.5 l26 -10l-23 -57q-7 -28 -7 -46q0 -47 24.5 -79t63.5 -37q48 28 121 196q70 163 151 438h-4q-124 -156 -223.5 -243.5t-149.5 -87.5q-32 0 -49.5 34t-17.5 101q0 99 51.5 251t138.5 291q106 173 246.5 289.5t228.5 116.5q27 0 54 -23.5t65 -82.5z" />
<glyph unicode="&#x122;" horiz-adv-x="1219" d="M242 -564q26 -47 36.5 -79t10.5 -54q0 -64 -84 -141.5t-229 -142.5l-13 28q64 36 92.5 76t28.5 88q0 28 -10 54t-37 59zM272 -78l-5 -31l-1 -30q0 -54 20.5 -98t63.5 -78q117 74 243 393q73 182 126 289l-8 6q-120 -192 -231 -308q-107 -110 -208 -143zM870 930h-55 q70 63 112 137t42 137q0 62 -36.5 99.5t-96.5 37.5q-72 0 -153.5 -45t-168.5 -137q-150 -157 -244 -368.5t-94 -387.5q0 -135 57 -213.5t150 -78.5h16q13 3 25 5t33 11q72 69 162.5 207t166.5 302q-34 5 -70 8l-59 6q-29 0 -48 1q-74 4 -83 4l185 121q100 -15 190 -24 q28 0 110 -7q47 -4 66 -4q-119 -130 -208 -378l-27 -74q-116 -309 -254 -472t-346 -259q-22 36 -33 78q-10 45 -10 96q0 48 9 96.5t30 95.5q-59 0 -105.5 26t-85.5 78q-72 96 -72 251q0 203 139.5 460t366.5 461q156 138 298 219.5t231 81.5q68 0 112.5 -38.5t44.5 -100.5 q0 -72 -82 -193.5t-215 -238.5z" />
<glyph unicode="&#x124;" horiz-adv-x="1479" d="M778 1967h129l148 -303l-80 -47l-144 242l-274 -242l-94 49zM-436 29l94 -11q44 -5 74 -5q35 0 89 -2.5t60 -2.5q165 0 409 611l11 28l-162 19l217 145q49 131 82 255q15 61 23 100.5t8 60.5q0 24 -8 33.5t-27 9.5q-12 0 -47.5 -13t-93.5 -40v36q187 120 282 172t123 52 q21 0 32 -16.5t11 -47.5q0 -50 -54.5 -214.5t-163.5 -434.5q43 0 95 -4l86 -8q53 0 153 -11l120 -14q82 247 136 392q58 153 112 270q78 17 141 35.5t117 39.5q-69 -121 -215 -463q-82 -197 -121 -282l37 -1l45 -1l43 1l61 5l-223 -121q-46 -112 -73 -215.5t-27 -165.5 q0 -42 9.5 -62t31.5 -20q24 0 55 29t74 92l14 -45q-105 -136 -198 -219q-47 -41 -80 -61.5t-56 -20.5q-36 0 -58 35q-20 35 -20 100q0 98 38.5 236t117.5 323l-17 -1l-16 -1h-45q-36 0 -101 2.5t-81 2.5q-39 0 -78 3l-123 12l-16 -52q-77 -260 -145 -368.5t-508 -317.5 l-19 -9z" />
<glyph unicode="&#x125;" horiz-adv-x="938" d="M797 1936h129l148 -303l-80 -47l-144 242l-274 -242l-94 49zM-170 -72l421 1065l70 184q49 131 76 209q38 10 50 14t50 18l124 46l-112 -281l-100 -248l-89 -216l-76 -182l-64 -150l-53 -119l12 -6q68 109 133 201.5t126 167.5q124 154 251 268l48 27q135 75 157 75 q17 0 29 -15t12 -40q0 -36 -142 -354l-44 -98q-61 -133 -90 -211.5t-29 -100.5q0 -24 16 -38.5t45 -14.5l21 2q8 0 12 2l-12 -31l-219 -126q-60 -33 -72 -33q-20 0 -34 15q-3 4 -8 13.5t-5 24.5q0 16 4 33t16 48q19 52 84 193l89 185q96 197 96 235q0 17 -8 26q-6 9 -21 9 q-60 0 -220 -202t-317 -498q-51 -15 -108 -39t-119 -58z" />
<glyph unicode="&#x128;" horiz-adv-x="883" d="M1007 1845l37 -15q-24 -52 -47.5 -89.5t-44.5 -57.5q-43 -41 -99 -41h-15h-12q-8 2 -13.5 2.5t-13 1.5t-19.5 6l-113 33l-35 9l-24 3q-28 0 -53 -18t-56 -62l-41 21q47 92 93 137t91 45l22 -3l35 -7l130 -35l38 -8l19 -2q37 0 67 20t54 60zM213 1079q60 177 189 288.5 t266 111.5q21 0 73 -2.5t73 -2.5l130 -4q-60 -51 -96.5 -94t-59.5 -88q-46 -91 -132.5 -399.5t-166.5 -495.5q-89 -214 -239.5 -379t-284.5 -202q-25 24 -40 62t-15 85q0 76 23 165.5t67 188.5l104 78q-23 -42 -40 -116t-17 -136q0 -66 15.5 -108t48.5 -60q62 74 118 204 q52 125 141 438.5t151 481t112 226.5l-52 3l-46 3q-32 0 -66 -7q-25 -4 -38 -7.5t-40 -12.5q-21 -24 -39 -63q-8 -17 -23 -60l-18 -49l-40 -21z" />
<glyph unicode="&#x129;" horiz-adv-x="455" d="M755 1388l37 -15q-24 -52 -47.5 -89.5t-44.5 -57.5q-43 -41 -99 -41h-15h-12q-8 2 -13.5 2.5t-13 1.5t-19.5 6l-113 33l-35 9l-24 3q-28 0 -53 -18t-56 -62l-41 21q47 92 93 137t91 45l22 -3l35 -7l130 -35l38 -8l19 -2q37 0 67 20t54 60zM178 881q84 39 153 76l77 40 q6 -1 7 -2l3 -6l-20 -45q-22 -50 -63 -135q-81 -174 -153 -363l-79 -218q-17 -59 -17 -85q0 -16 7.5 -27t19.5 -12q21 0 53 38t70 110l-31 -146l-109 -82q-48 -34 -81 -53q-65 -41 -93 -41q-25 0 -42 23.5t-17 60.5q0 62 121 352q117 283 194 515z" />
<glyph unicode="&#x12a;" horiz-adv-x="883" d="M482 1756h539l-31 -139h-539zM213 1079q60 177 189 288.5t266 111.5q21 0 73 -2.5t73 -2.5l130 -4q-60 -51 -96.5 -94t-59.5 -88q-46 -91 -132.5 -399.5t-166.5 -495.5q-89 -214 -239.5 -379t-284.5 -202q-25 24 -40 62t-15 85q0 76 23 165.5t67 188.5l104 78 q-23 -42 -40 -116t-17 -136q0 -66 15.5 -108t48.5 -60q62 74 118 204q52 125 141 438.5t151 481t112 226.5l-52 3l-46 3q-32 0 -66 -7q-25 -4 -38 -7.5t-40 -12.5q-21 -24 -39 -63q-8 -17 -23 -60l-18 -49l-40 -21z" />
<glyph unicode="&#x12b;" horiz-adv-x="455" d="M230 1299h539l-31 -139h-539zM178 881q84 39 153 76l77 40q6 -1 7 -2l3 -6l-20 -45q-22 -50 -63 -135q-81 -174 -153 -363l-79 -218q-17 -59 -17 -85q0 -16 7.5 -27t19.5 -12q21 0 53 38t70 110l-31 -146l-109 -82q-48 -34 -81 -53q-65 -41 -93 -41q-25 0 -42 23.5 t-17 60.5q0 62 121 352q117 283 194 515z" />
<glyph unicode="&#x12c;" horiz-adv-x="883" d="M501 1903l64 1q12 -75 54 -109.5t118 -34.5q95 0 167 33.5t138 110.5h70q-91 -152 -182.5 -219.5t-202.5 -67.5q-112 0 -168 71q-28 36 -43 89t-15 126zM213 1079q60 177 189 288.5t266 111.5q21 0 73 -2.5t73 -2.5l130 -4q-60 -51 -96.5 -94t-59.5 -88 q-46 -91 -132.5 -399.5t-166.5 -495.5q-89 -214 -239.5 -379t-284.5 -202q-25 24 -40 62t-15 85q0 76 23 165.5t67 188.5l104 78q-23 -42 -40 -116t-17 -136q0 -66 15.5 -108t48.5 -60q62 74 118 204q52 125 141 438.5t151 481t112 226.5l-52 3l-46 3q-32 0 -66 -7 q-25 -4 -38 -7.5t-40 -12.5q-21 -24 -39 -63q-8 -17 -23 -60l-18 -49l-40 -21z" />
<glyph unicode="&#x12d;" horiz-adv-x="455" d="M249 1446l64 1q12 -75 54 -109.5t118 -34.5q95 0 167 33.5t138 110.5h70q-91 -152 -182.5 -219.5t-202.5 -67.5q-112 0 -168 71q-28 36 -43 89t-15 126zM178 881q84 39 153 76l77 40q6 -1 7 -2l3 -6l-20 -45q-22 -50 -63 -135q-81 -174 -153 -363l-79 -218 q-17 -59 -17 -85q0 -16 7.5 -27t19.5 -12q21 0 53 38t70 110l-31 -146l-109 -82q-48 -34 -81 -53q-65 -41 -93 -41q-25 0 -42 23.5t-17 60.5q0 62 121 352q117 283 194 515z" />
<glyph unicode="&#x12e;" horiz-adv-x="883" d="M-202 -172h47q-84 -65 -129 -135t-45 -138q0 -51 24 -77.5t74 -26.5q28 0 54 16q26 14 61 51l23 -28q-58 -70 -119 -107q-29 -17 -59.5 -27t-59.5 -10q-55 0 -91 40.5t-36 103.5q0 81 58 159t198 179zM213 1079q60 177 189 288.5t266 111.5q21 0 73 -2.5t73 -2.5l130 -4 q-60 -51 -96.5 -94t-59.5 -88q-46 -91 -132.5 -399.5t-166.5 -495.5q-89 -214 -239.5 -379t-284.5 -202q-25 24 -40 62t-15 85q0 76 23 165.5t67 188.5l104 78q-23 -42 -40 -116t-17 -136q0 -66 15.5 -108t48.5 -60q62 74 118 204q52 125 141 438.5t151 481t112 226.5l-52 3 l-46 3q-32 0 -66 -7q-25 -4 -38 -7.5t-40 -12.5q-21 -24 -39 -63q-8 -17 -23 -60l-18 -49l-40 -21z" />
<glyph unicode="&#x12f;" horiz-adv-x="455" d="M-245 -54h47q-84 -65 -129 -135t-45 -138q0 -51 24 -77.5t74 -26.5q28 0 54 16q26 14 61 51l23 -28q-58 -70 -119 -107q-29 -17 -59.5 -27t-59.5 -10q-55 0 -91 40.5t-36 103.5q0 81 58 159t198 179zM229 1202q44 37 48 41q18 20 27 29q32 34 71 82q14 -4 51 -13l53 -13 q20 -3 49 -6t49 -3q-27 -66 -90 -108t-133 -42q-26 0 -36 1.5t-28 6.5q-31 8 -61 25zM178 881q84 39 153 76l77 40q6 -1 7 -2l3 -6l-20 -45q-22 -50 -63 -135q-81 -174 -153 -363l-79 -218q-17 -59 -17 -85q0 -16 7.5 -27t19.5 -12q21 0 53 38t70 110l-31 -146l-109 -82 q-49 -34 -81 -53q-65 -41 -93 -41q-25 0 -42 23.5t-17 60.5q0 62 121 352q117 283 194 515z" />
<glyph unicode="&#x130;" horiz-adv-x="883" d="M213 1079q60 177 189 288.5t266 111.5q21 0 73 -2.5t73 -2.5l130 -4q-60 -51 -96.5 -94t-59.5 -88q-46 -91 -132.5 -399.5t-166.5 -495.5q-89 -214 -239.5 -379t-284.5 -202q-25 24 -40 62t-15 85q0 76 23 165.5t67 188.5l104 78q-23 -42 -40 -116t-17 -136 q0 -66 15.5 -108t48.5 -60q62 74 118 204q52 125 141 438.5t151 481t112 226.5l-52 3l-46 3q-32 0 -66 -7q-25 -4 -38 -7.5t-40 -12.5q-21 -24 -39 -63q-8 -17 -23 -60l-18 -49l-40 -21zM821 1930q45 0 80 -33.5t35 -79.5q0 -48 -33.5 -81.5t-81.5 -33.5q-45 0 -79 33.5 t-34 81.5q0 44 34.5 78.5t78.5 34.5z" />
<glyph unicode="&#x131;" horiz-adv-x="455" d="M178 881q84 39 153 76l77 40q6 -1 7 -2l3 -6l-20 -45q-22 -50 -63 -135q-81 -174 -153 -363l-79 -218q-17 -59 -17 -85q0 -16 7.5 -27t19.5 -12q21 0 53 38t70 110l-31 -146l-109 -82q-48 -34 -81 -53q-65 -41 -93 -41q-25 0 -42 23.5t-17 60.5q0 62 121 352 q117 283 194 515z" />
<glyph unicode="&#x132;" horiz-adv-x="1856" d="M1944 1452q-134 -101 -314 -682l-63 -203l-56 -174l-50 -145q-19 -52 -23 -64q-18 -47 -42 -101q-33 -78 -62 -128q-44 -75 -114 -149q-66 -69 -181 -154q-51 -37 -110 -64.5t-77 -27.5q-27 0 -53.5 44.5t-26.5 104.5q0 114 54 244t159 270l62 21q-55 -73 -89 -182 t-34 -216q0 -61 13 -99t40 -56q55 50 123.5 163t124.5 257q60 154 185 578q121 418 230 624l-66 7l-56 3h-35q-15 0 -43 -4q-32 -3 -61 -12q-76 -96 -118 -194q-20 -50 -30 -94.5t-10 -90.5q0 -67 30.5 -105.5t82.5 -38.5q15 0 28.5 4.5t25.5 13.5q-44 -54 -97 -108.5 t-129 -120.5q-57 19 -85 65t-28 114q0 60 17 125t54 142t83 144t108 133q86 90 156 134.5t129 44.5q50 0 159 -11.5t156 -11.5h33zM213 1079q60 177 189 288.5t266 111.5q21 0 73 -2.5t73 -2.5l130 -4q-60 -51 -96.5 -94t-59.5 -88q-46 -91 -132.5 -399.5t-166.5 -495.5 q-89 -214 -239.5 -379t-284.5 -202q-25 24 -40 62t-15 85q0 76 23 165.5t67 188.5l104 78q-23 -42 -40 -116t-17 -136q0 -66 15.5 -108t48.5 -60q62 74 118 204q52 125 141 438.5t151 481t112 226.5l-52 3l-46 3q-32 0 -66 -7q-25 -4 -38 -7.5t-40 -12.5q-21 -24 -39 -63 q-8 -17 -23 -60l-18 -49l-40 -21z" />
<glyph unicode="&#x133;" horiz-adv-x="901" d="M650 911q52 19 227 99l12 6q-133 -329 -284 -743q-142 -395 -168 -437q-64 -97 -169 -189.5t-137 -92.5q-24 0 -39.5 31t-15.5 77q0 38 11 77q5 19 13 41.5t19 43.5l35 35l-9 -48l-3 -47q0 -29 7.5 -48.5t24.5 -34.5q50 41 183 383q68 175 138 380zM676 1204l27 24 q23 21 45 44q35 36 72 84q42 -17 91 -27t99 -10h16q-38 -69 -99.5 -108.5t-129.5 -39.5q-21 0 -31 1t-30 7q-32 10 -60 25zM229 1202q44 37 48 41q18 20 27 29q32 34 71 82q14 -4 51 -13l53 -13q20 -3 49 -6t49 -3q-27 -66 -90 -108t-133 -42q-26 0 -36 1.5t-28 6.5 q-31 8 -61 25zM178 881q84 39 153 76l77 40q6 -1 7 -2l3 -6l-20 -45q-22 -50 -63 -135q-81 -174 -153 -363l-79 -218q-17 -59 -17 -85q0 -16 7.5 -27t19.5 -12q21 0 53 38t70 110l-31 -146l-109 -82q-49 -34 -81 -53q-65 -41 -93 -41q-25 0 -42 23.5t-17 60.5q0 62 121 352 q117 283 194 515z" />
<glyph unicode="&#x134;" horiz-adv-x="973" d="M794 1967h129l148 -303l-80 -47l-144 242l-274 -242l-94 49zM1061 1452q-134 -101 -314 -682l-63 -203l-56 -174l-50 -145q-19 -52 -23 -64q-18 -47 -42 -101q-33 -78 -62 -128q-44 -75 -114 -149q-66 -69 -181 -154q-51 -37 -110 -64.5t-77 -27.5q-27 0 -53.5 44.5 t-26.5 104.5q0 114 54 244t159 270l62 21q-55 -73 -89 -182t-34 -216q0 -61 13 -99t40 -56q55 50 123.5 163t124.5 257q60 154 185 578q121 418 230 624l-66 7l-56 3h-35q-15 0 -43 -4q-32 -3 -61 -12q-76 -96 -118 -194q-20 -50 -30 -94.5t-10 -90.5q0 -67 30.5 -105.5 t82.5 -38.5q15 0 28.5 4.5t25.5 13.5q-44 -54 -97 -108.5t-129 -120.5q-57 19 -85 65t-28 114q0 60 17 125t54 142t83 144t108 133q86 90 156 134.5t129 44.5q50 0 159 -11.5t156 -11.5h33z" />
<glyph unicode="&#x135;" horiz-adv-x="446" d="M440 1828h129l148 -303l-80 -47l-144 242l-274 -242l-94 49zM195 911q52 19 227 99l12 6q-133 -329 -284 -743q-142 -395 -168 -437q-64 -97 -169 -189.5t-137 -92.5q-24 0 -39.5 31t-15.5 77q0 38 11 77q5 19 13 41.5t19 43.5l35 35l-9 -48l-3 -47q0 -29 7.5 -48.5 t24.5 -34.5q50 41 183 383q68 175 138 380zM221 1204l27 24q23 21 45 44q35 36 72 84q42 -17 91 -27t99 -10h16q-38 -69 -99.5 -108.5t-129.5 -39.5q-21 0 -31 1t-30 7q-32 10 -60 25z" />
<glyph unicode="&#x136;" horiz-adv-x="1384" d="M-78 -247q26 -47 36.5 -79t10.5 -54q0 -64 -84 -141.5t-229 -142.5l-13 28q64 36 92.5 76t28.5 88q0 28 -10 54t-37 59zM-78 -125q197 441 328 833.5t131 485.5q0 27 -11 41q-9 14 -30 14q-16 0 -43.5 -13.5t-69.5 -45.5l-12 39q144 108 258 180t135 72q24 0 36.5 -18 t12.5 -50q0 -48 -64.5 -252.5t-174.5 -500.5q40 0 75 6q3 1 42 10q55 12 104 31q264 326 486.5 555t256.5 229q9 0 19 -11q9 -8 10 -22q0 -126 -203.5 -349t-545.5 -456q97 -269 167 -395.5t123 -126.5q24 0 59 29q18 14 36 34t36 46l11 -43q-90 -129 -172.5 -209 t-120.5 -80q-59 0 -224 424l-61 160q-122 -131 -210 -244t-150 -219l-111 -72zM254 250l100 119l140 168q-22 51 -41 75q-18 27 -37 37l-42 -118l-41 -105q-39 -95 -79 -176z" />
<glyph unicode="&#x137;" d="M-197 -204q26 -47 36.5 -79t10.5 -54q0 -64 -84 -141.5t-229 -142.5l-13 28q64 36 92.5 76t28.5 88q0 28 -10 54t-37 59zM-197 -82l321 826q200 509 232 630l115 42l115 48l-102 -262l-83 -212l-65 -161q-76 -190 -150 -356h4q185 104 231 158.5t46 132.5v24 q-3 17 -4.5 28t-2.5 20.5t-7 31.5l219 105q12 -20 19 -45.5t7 -55.5q0 -136 -340 -344l-30 -18q33 -190 99.5 -315t125.5 -125l17 4q8 2 13 4.5t17 9.5l10 -25q-74 -63 -134.5 -100t-86.5 -37q-58 0 -124.5 136.5t-96.5 338.5l-8 -4l-87 -215l-50 -129l-98 -60z" />
<glyph unicode="&#x139;" horiz-adv-x="1233" d="M912 1623l207 266l221 27l-297 -277zM852 954l-37 17q92 69 137 130t45 120q0 61 -36.5 97t-102.5 36q-16 0 -42 -6q-8 -2 -24.5 -7t-27.5 -10q-18 -15 -37.5 -40.5t-40.5 -63.5q-39 -70 -100 -217q-10 -23 -35 -93l-30 -81q-123 -347 -250 -530q59 -7 221 -144l24 -21 q88 -74 147 -106q31 -16 57 -24.5t52 -8.5q63 36 113 100.5t90 163.5l108 21q-95 -157 -222 -276t-265 -185q-75 14 -216.5 145.5t-229.5 188.5q-103 -112 -205.5 -180t-159.5 -68q-12 0 -20 5t-9 15q0 70 110 186t265 177q25 63 63 169l90 256q102 297 175 410 q43 68 121 132q40 32 91 66t115 69q88 48 168.5 76t141.5 28q64 0 97.5 -25.5t33.5 -74.5q0 -80 -97.5 -197t-277.5 -250z" />
<glyph unicode="&#x13a;" horiz-adv-x="473" d="M615 1586l207 266l221 27l-297 -277zM348 1378q61 16 116 37t111 49l-112 -300l-145 -369q-199 -507 -199 -600q0 -11 1.5 -21.5t9.5 -21.5q12 -15 34 -15q13 0 29 8l51 31l12 -22l-73 -76q-149 -154 -189 -154q-41 0 -72 34.5t-31 82.5q0 89 176 532q88 223 158 424 q67 193 123 381z" />
<glyph unicode="&#x13b;" horiz-adv-x="1233" d="M596 -296q26 -47 36.5 -79t10.5 -54q0 -64 -84 -141.5t-229 -142.5l-13 28q64 36 92.5 76t28.5 88q0 28 -10 54t-37 59zM852 954l-37 17q92 69 137 130t45 120q0 61 -36.5 97t-102.5 36q-16 0 -42 -6q-8 -2 -24.5 -7t-27.5 -10q-18 -15 -37.5 -40.5t-40.5 -63.5 q-39 -70 -100 -217q-10 -23 -35 -93l-30 -81q-123 -347 -250 -530q59 -7 221 -144l24 -21q88 -74 147 -106q31 -16 57 -24.5t52 -8.5q63 36 113 100.5t90 163.5l108 21q-95 -157 -222 -276t-265 -185q-75 14 -216.5 145.5t-229.5 188.5q-103 -112 -205.5 -180t-159.5 -68 q-12 0 -20 5t-9 15q0 70 110 186t265 177q25 63 63 169l90 256q102 297 175 410q43 68 121 132q40 32 91 66t115 69q88 48 168.5 76t141.5 28q64 0 97.5 -25.5t33.5 -74.5q0 -80 -97.5 -197t-277.5 -250z" />
<glyph unicode="&#x13c;" horiz-adv-x="473" d="M-6 -198q26 -47 36.5 -79t10.5 -54q0 -64 -84 -141.5t-229 -142.5l-13 28q64 36 92.5 76t28.5 88q0 28 -10 54t-37 59zM348 1378q61 16 116 37t111 49l-112 -300l-145 -369q-199 -507 -199 -600q0 -11 1.5 -21.5t9.5 -21.5q12 -15 34 -15q13 0 29 8l51 31l12 -22l-73 -76 q-149 -154 -189 -154q-41 0 -72 34.5t-31 82.5q0 89 176 532q88 223 158 424q67 193 123 381z" />
<glyph unicode="&#x13d;" horiz-adv-x="1233" d="M1829 1501q26 -47 36.5 -79t10.5 -54q0 -64 -84 -141.5t-229 -142.5l-13 28q64 36 92.5 76t28.5 88q0 28 -10 54t-37 59zM852 954l-37 17q92 69 137 130t45 120q0 61 -36.5 97t-102.5 36q-16 0 -42 -6q-8 -2 -24.5 -7t-27.5 -10q-18 -15 -37.5 -40.5t-40.5 -63.5 q-39 -70 -100 -217q-10 -23 -35 -93l-30 -81q-123 -347 -250 -530q59 -7 221 -144l24 -21q88 -74 147 -106q31 -16 57 -24.5t52 -8.5q63 36 113 100.5t90 163.5l108 21q-95 -157 -222 -276t-265 -185q-75 14 -216.5 145.5t-229.5 188.5q-103 -112 -205.5 -180t-159.5 -68 q-12 0 -20 5t-9 15q0 70 110 186t265 177q25 63 63 169l90 256q102 297 175 410q43 68 121 132q40 32 91 66t115 69q88 48 168.5 76t141.5 28q64 0 97.5 -25.5t33.5 -74.5q0 -80 -97.5 -197t-277.5 -250z" />
<glyph unicode="&#x13e;" horiz-adv-x="473" d="M927 1464q26 -47 36.5 -79t10.5 -54q0 -64 -84 -141.5t-229 -142.5l-13 28q64 36 92.5 76t28.5 88q0 28 -10 54t-37 59zM348 1378q61 16 116 37t111 49l-112 -300l-145 -369q-199 -507 -199 -600q0 -11 1.5 -21.5t9.5 -21.5q12 -15 34 -15q13 0 29 8l51 31l12 -22 l-73 -76q-149 -154 -189 -154q-41 0 -72 34.5t-31 82.5q0 89 176 532q88 223 158 424q67 193 123 381z" />
<glyph unicode="&#x141;" horiz-adv-x="1208" d="M827 954l-36 17q92 70 138 131t46 119q0 60 -38 96.5t-103 36.5q-16 0 -40 -6q-9 -2 -21 -5.5t-32 -11.5q-49 -39 -118 -184q-62 -135 -164 -418l364 111l-24 -76l-371 -113q-18 -48 -34.5 -85.5t-42.5 -85.5q-44 -81 -105 -175q62 -7 232 -150l16 -14q89 -75 146 -106 q31 -16 57 -24.5t52 -8.5q62 35 111.5 100t89.5 164l109 21q-95 -158 -222.5 -276.5t-265.5 -184.5q-74 13 -214 144.5t-230 189.5q-103 -112 -205.5 -180t-159.5 -68q-11 0 -19 5t-9 15q0 71 109.5 188t262.5 175l53 134l56 157l-240 -74l37 82l230 70q84 266 146 388 t138 187q139 118 292 189q75 35 139.5 54t113.5 19q63 0 98 -26t35 -74q0 -78 -98.5 -196.5t-278.5 -250.5z" />
<glyph unicode="&#x142;" horiz-adv-x="473" d="M348 1378q61 16 116 37t111 49q-28 -86 -106 -287l-84 -213l-96 -239l155 63l2 -59l-186 -78q-68 -171 -104.5 -288t-36.5 -168q0 -11 1.5 -21.5t9.5 -21.5q12 -15 34 -15q13 0 29 8l51 31l12 -22l-73 -76q-149 -154 -189 -154q-41 0 -72 34.5t-31 82.5q0 49 36.5 164 t144.5 389l-181 -76v62l211 86q106 270 168.5 452t77.5 260z" />
<glyph unicode="&#x143;" horiz-adv-x="1479" d="M669 1617l207 266l221 27l-297 -277zM197 1221q120 105 229 176q104 65 203 98q94 -147 188 -486q89 -324 164 -798q78 144 142 279q61 129 105.5 248.5t66.5 210t22 159.5q0 80 -29.5 124t-83.5 44q-42 0 -81.5 -29t-80.5 -88l-20 35q98 137 192 217t152 80 q39 0 61.5 -38.5t22.5 -106.5q0 -215 -160.5 -609.5t-441.5 -849.5l-17 -2q-46 360 -112.5 671t-147.5 554q-73 -254 -184.5 -512t-255.5 -504q-108 -183 -192 -279t-136 -96q-32 0 -55.5 37t-23.5 90q0 111 56.5 227.5t184.5 262.5l64 18q-81 -78 -125.5 -158.5 t-44.5 -148.5q0 -24 10 -37.5t31 -13.5q49 0 113 70.5t147 216.5q157 279 258.5 533t101.5 347q0 59 -26.5 91t-77.5 32q-42 0 -99 -29.5t-112 -80.5z" />
<glyph unicode="&#x144;" horiz-adv-x="938" d="M627 1160l207 266l221 27l-297 -277zM47 0q-58 -6 -108 -19t-93 -32l54 151l77 199q189 492 189 645q56 15 127 42.5t84 27.5q9 0 13.5 -6t6.5 -21q0 -48 -102 -293l-62 -153l-54 -138q-35 -91 -46 -122l14 -5q46 81 95 155.5t109.5 153t131.5 160.5t154 168l179 83 q42 18 56 18q10 0 15 -8q6 -6 6 -21q0 -38 -122 -291l-17 -37q-73 -151 -122 -283q-44 -124 -44 -173q0 -31 12 -48.5t35 -17.5q11 0 24 4q15 3 27 10v-32l-99 -58q-174 -102 -198 -102q-22 0 -37.5 20t-15.5 52q0 40 31 124q16 45 42 105t68 148l53 112q74 157 74 184 q0 15 -6 22t-20 9q-66 0 -225 -211t-306 -522z" />
<glyph unicode="&#x145;" horiz-adv-x="1479" d="M-197 -403q26 -47 36.5 -79t10.5 -54q0 -64 -84 -141.5t-229 -142.5l-13 28q64 36 92.5 76t28.5 88q0 28 -10 54t-37 59zM197 1221q120 105 229 176q104 65 203 98q94 -147 188 -486q89 -324 164 -798q78 144 142 279q61 129 105.5 248.5t66.5 210t22 159.5 q0 80 -29.5 124t-83.5 44q-42 0 -81.5 -29t-80.5 -88l-20 35q98 137 192 217t152 80q39 0 61.5 -38.5t22.5 -106.5q0 -215 -160.5 -609.5t-441.5 -849.5l-17 -2q-46 360 -112.5 671t-147.5 554q-73 -254 -184.5 -512t-255.5 -504q-108 -183 -192 -279t-136 -96 q-32 0 -55.5 37t-23.5 90q0 111 56.5 227.5t184.5 262.5l64 18q-81 -78 -125.5 -158.5t-44.5 -148.5q0 -24 10 -37.5t31 -13.5q49 0 113 70.5t147 216.5q157 279 258.5 533t101.5 347q0 59 -26.5 91t-77.5 32q-42 0 -99 -29.5t-112 -80.5z" />
<glyph unicode="&#x146;" horiz-adv-x="938" d="M-154 -173q26 -47 36.5 -79t10.5 -54q0 -64 -84 -141.5t-229 -142.5l-13 28q64 36 92.5 76t28.5 88q0 28 -10 54t-37 59zM47 0q-58 -6 -108 -19t-93 -32l54 151l77 199q189 492 189 645q56 15 127 42.5t84 27.5q9 0 13.5 -6t6.5 -21q0 -48 -102 -293l-62 -153l-54 -138 q-35 -91 -46 -122l14 -5q46 81 95 155.5t109.5 153t131.5 160.5t154 168l179 83q42 18 56 18q10 0 15 -8q6 -6 6 -21q0 -38 -122 -291l-17 -37q-73 -151 -122 -283q-44 -124 -44 -173q0 -31 12 -48.5t35 -17.5q11 0 24 4q15 3 27 10v-32l-99 -58q-174 -102 -198 -102 q-22 0 -37.5 20t-15.5 52q0 40 31 124q16 45 42 105t68 148l53 112q74 157 74 184q0 15 -6 22t-20 9q-66 0 -225 -211t-306 -522z" />
<glyph unicode="&#x147;" horiz-adv-x="1479" d="M747 1617h-129l-147 303l80 47l143 -241l275 241l94 -49zM197 1221q120 105 229 176q104 65 203 98q94 -147 188 -486q89 -324 164 -798q78 144 142 279q61 129 105.5 248.5t66.5 210t22 159.5q0 80 -29.5 124t-83.5 44q-42 0 -81.5 -29t-80.5 -88l-20 35q98 137 192 217 t152 80q39 0 61.5 -38.5t22.5 -106.5q0 -215 -160.5 -609.5t-441.5 -849.5l-17 -2q-46 360 -112.5 671t-147.5 554q-73 -254 -184.5 -512t-255.5 -504q-108 -183 -192 -279t-136 -96q-32 0 -55.5 37t-23.5 90q0 111 56.5 227.5t184.5 262.5l64 18q-81 -78 -125.5 -158.5 t-44.5 -148.5q0 -24 10 -37.5t31 -13.5q49 0 113 70.5t147 216.5q157 279 258.5 533t101.5 347q0 59 -26.5 91t-77.5 32q-42 0 -99 -29.5t-112 -80.5z" />
<glyph unicode="&#x148;" horiz-adv-x="938" d="M705 1160h-129l-147 303l80 47l143 -241l275 241l94 -49zM47 0q-58 -6 -108 -19t-93 -32l54 151l77 199q189 492 189 645q56 15 127 42.5t84 27.5q9 0 13.5 -6t6.5 -21q0 -48 -102 -293l-62 -153l-54 -138q-35 -91 -46 -122l14 -5q46 81 95 155.5t109.5 153t131.5 160.5 t154 168l179 83q42 18 56 18q10 0 15 -8q6 -6 6 -21q0 -38 -122 -291l-17 -37q-73 -151 -122 -283q-44 -124 -44 -173q0 -31 12 -48.5t35 -17.5q11 0 24 4q15 3 27 10v-32l-99 -58q-174 -102 -198 -102q-22 0 -37.5 20t-15.5 52q0 40 31 124q16 45 42 105t68 148l53 112 q74 157 74 184q0 15 -6 22t-20 9q-66 0 -225 -211t-306 -522z" />
<glyph unicode="&#x14c;" horiz-adv-x="1374" d="M819 1756h539l-31 -139h-539zM645 1366l33 -6q-217 -166 -339 -393.5t-122 -464.5q0 -177 101 -283t268 -106q83 0 157 33t144 104q118 121 196 309t78 354t-71 265.5t-189 99.5q-91 0 -178.5 -62.5t-177.5 -193.5l-51 -2q60 80 187 233q123 149 153 207q34 16 78.5 25.5 t97.5 9.5q161 0 267.5 -120.5t106.5 -305.5q0 -224 -112.5 -441t-325.5 -403q-160 -139 -309.5 -216t-259.5 -77q-178 0 -281.5 111.5t-103.5 304.5q0 277 173 546.5t480 471.5z" />
<glyph unicode="&#x14d;" horiz-adv-x="739" d="M417 1299h539l-31 -139h-539zM410 1020l39 -6q-166 -153 -267.5 -350.5t-101.5 -362.5q0 -83 36 -130.5t99 -47.5q20 0 40 5.5t42 18.5q87 138 141 306t54 282q0 51 -16 79t-46 28q-12 0 -23 -3.5t-22 -13.5l-12 15l235 198q34 0 58 -51q10 -23 16 -55t6 -72 q0 -149 -70.5 -318t-195.5 -313q-115 -132 -224.5 -213.5t-166.5 -81.5q-69 0 -110.5 58t-41.5 158q0 204 141 438t390 432z" />
<glyph unicode="&#x14e;" horiz-adv-x="1374" d="M838 1903l64 1q12 -75 54 -109.5t118 -34.5q95 0 167 33.5t138 110.5h70q-91 -152 -182.5 -219.5t-202.5 -67.5q-112 0 -168 71q-28 36 -43 89t-15 126zM645 1366l33 -6q-217 -166 -339 -393.5t-122 -464.5q0 -177 101 -283t268 -106q83 0 157 33t144 104 q118 121 196 309t78 354t-71 265.5t-189 99.5q-91 0 -178.5 -62.5t-177.5 -193.5l-51 -2q60 80 187 233q123 149 153 207q34 16 78.5 25.5t97.5 9.5q161 0 267.5 -120.5t106.5 -305.5q0 -224 -112.5 -441t-325.5 -403q-160 -139 -309.5 -216t-259.5 -77q-178 0 -281.5 111.5 t-103.5 304.5q0 277 173 546.5t480 471.5z" />
<glyph unicode="&#x14f;" horiz-adv-x="739" d="M436 1446l64 1q12 -75 54 -109.5t118 -34.5q95 0 167 33.5t138 110.5h70q-91 -152 -182.5 -219.5t-202.5 -67.5q-112 0 -168 71q-28 36 -43 89t-15 126zM410 1020l39 -6q-166 -153 -267.5 -350.5t-101.5 -362.5q0 -83 36 -130.5t99 -47.5q20 0 40 5.5t42 18.5 q87 138 141 306t54 282q0 51 -16 79t-46 28q-12 0 -23 -3.5t-22 -13.5l-12 15l235 198q34 0 58 -51q10 -23 16 -55t6 -72q0 -149 -70.5 -318t-195.5 -313q-115 -132 -224.5 -213.5t-166.5 -81.5q-69 0 -110.5 58t-41.5 158q0 204 141 438t390 432z" />
<glyph unicode="&#x152;" horiz-adv-x="2238" d="M645 1366l33 -6q-217 -166 -339 -393.5t-122 -464.5q0 -177 101 -283t268 -106q87 0 159 32.5t140 102.5q119 124 201.5 318t82.5 358q0 166 -70 265t-190 99q-93 0 -181 -63.5t-183 -202.5l-51 -2q60 80 187 233q123 149 153 207q34 16 78.5 25.5t97.5 9.5 q162 0 265 -119.5t103 -306.5q0 -138 -44.5 -279.5t-137.5 -291.5q97 78 197.5 135t220.5 100q-95 34 -139.5 81.5t-44.5 113.5q0 83 72 176t249 233q112 89 174 121q30 15 58 23t53 8q80 0 142.5 -44.5t62.5 -98.5q0 -65 -63.5 -143t-188.5 -169l-35 17q51 36 76.5 70 t25.5 67q0 50 -52 90.5t-120 40.5q-21 0 -31 -1t-29 -7q-16 -3 -28.5 -8t-28.5 -15q-61 -56 -97 -118.5t-36 -112.5q0 -96 105 -165t262 -69h18q-58 -37 -103 -70l-32 -23q-21 -15 -51 -40l-64 9l-49 3q-41 0 -85 -9.5t-91 -28.5q-129 -54 -213 -148t-84 -182 q0 -81 72.5 -130.5t191.5 -49.5q91 0 162.5 15.5t118.5 47.5q40 56 70 112t49 107l96 13q-117 -236 -295 -370t-373 -134q-129 0 -217 74.5t-88 183.5q0 23 1.5 33.5t6.5 29.5q9 33 27 78q-192 -195 -373 -303.5t-319 -108.5q-178 0 -281.5 111.5t-103.5 304.5 q0 277 173 546.5t480 471.5z" />
<glyph unicode="&#x153;" horiz-adv-x="1100" d="M649 627l39 -11l47 -4l44 4h5q48 39 77.5 87.5t29.5 87.5q0 28 -15 48.5t-38 20.5l-13 -2l-22 -6q-52 -43 -90.5 -99t-63.5 -126zM297 147q82 131 130 269t48 241q0 83 -36 131t-99 48q-22 0 -41 -6.5t-41 -18.5q-81 -126 -131 -268q-23 -68 -35 -128.5t-12 -113.5 q0 -83 36 -130.5t99 -47.5q20 0 40 5.5t42 18.5zM821 313l88 6q-52 -151 -184 -271t-217 -120q-66 0 -107 60t-41 159v15q-101 -104 -191 -166t-138 -62q-67 0 -109.5 58t-42.5 158q0 114 47 242t133 249q110 152 234 250t199 98q71 0 112 -53.5t41 -151.5v-20 q80 98 190 161q52 30 101.5 46t91.5 16q36 0 58 -20t22 -52q0 -47 -42.5 -112t-115.5 -123q-91 -72 -182 -116q-47 -22 -87 -34t-75 -12q-24 -58 -35.5 -117.5t-11.5 -124.5q0 -89 33 -135.5t94 -46.5h18q8 0 12 2q35 33 60.5 87.5t44.5 129.5z" />
<glyph unicode="&#x154;" horiz-adv-x="1356" d="M1240 1619l207 266l221 27l-297 -277zM453 644l6 2q117 56 159 79l31 -3l49 -1l25 1l39 5q120 75 204 216q41 70 63 134t22 119q0 43 -14 64.5t-42 21.5q-68 0 -225 -179.5t-317 -458.5zM238 1188l-5 47l217 138q174 112 197 112q17 0 29 -16q10 -17 10 -46 q0 -48 -36 -191t-97 -331l4 -8q207 285 378.5 444.5t264.5 159.5q42 0 69 -41.5t27 -109.5q0 -100 -45.5 -216t-120.5 -208q-68 -85 -185 -152q-111 -64 -286 -119q158 -327 219.5 -416.5t108.5 -89.5q25 0 49 16t84 85l15 -47l-95 -107q-157 -178 -194 -178q-51 0 -181 270 t-229 443q-52 -122 -96 -253l-33 -99q-20 -61 -53 -177q-48 -35 -88 -67l-87 -73l-87 -73l-7 3q-3 3 -3 10q0 13 40 111l44 108q164 413 253 686t89 358q0 38 -16 60t-42 22q-19 0 -44 -12t-68 -43z" />
<glyph unicode="&#x155;" horiz-adv-x="645" d="M443 1160l207 266l221 27l-297 -277zM78 858l80 48l66 38q50 27 67 29q15 0 26 -18q9 -18 9 -52q0 -42 -9.5 -95.5t-27.5 -119.5l8 -6q95 169 156 243t106 74q30 0 51 -23.5t21 -60.5q0 -53 -31 -128q-15 -36 -38 -80.5t-56 -96.5l-23 11l17 57l4 27q0 32 -12.5 49.5 t-36.5 17.5q-40 0 -94 -60t-101 -163q-55 -120 -93 -245t-38 -154q0 -19 9 -31q10 -10 26 -10q9 0 27 9l53 36l2 -43q-89 -81 -174 -134q-81 -49 -123 -49q-23 0 -40 18q-15 18 -15 48q0 24 25 99t114 304q53 136 78.5 227t25.5 140q0 32 -14 50q-11 17 -41 26z" />
<glyph unicode="&#x156;" horiz-adv-x="1356" d="M-8 -237q26 -47 36.5 -79t10.5 -54q0 -64 -84 -141.5t-229 -142.5l-13 28q64 36 92.5 76t28.5 88q0 28 -10 54t-37 59zM453 644l6 2q117 56 159 79l31 -3l49 -1l25 1l39 5q120 75 204 216q41 70 63 134t22 119q0 43 -14 64.5t-42 21.5q-68 0 -225 -179.5t-317 -458.5z M238 1188l-5 47l217 138q174 112 197 112q17 0 29 -16q10 -17 10 -46q0 -48 -36 -191t-97 -331l4 -8q207 285 378.5 444.5t264.5 159.5q42 0 69 -41.5t27 -109.5q0 -100 -45.5 -216t-120.5 -208q-68 -85 -185 -152q-111 -64 -286 -119q158 -327 219.5 -416.5t108.5 -89.5 q25 0 49 16t84 85l15 -47l-95 -107q-157 -178 -194 -178q-51 0 -181 270t-229 443q-52 -122 -96 -253l-33 -99q-20 -61 -53 -177q-48 -35 -88 -67l-87 -73l-87 -73l-7 3q-3 3 -3 10q0 13 40 111l44 108q164 413 253 686t89 358q0 38 -16 60t-42 22q-19 0 -44 -12t-68 -43z " />
<glyph unicode="&#x157;" horiz-adv-x="645" d="M-51 -194q26 -47 36.5 -79t10.5 -54q0 -64 -84 -141.5t-229 -142.5l-13 28q64 36 92.5 76t28.5 88q0 28 -10 54t-37 59zM78 858l80 48l66 38q50 27 67 29q15 0 26 -18q9 -18 9 -52q0 -42 -9.5 -95.5t-27.5 -119.5l8 -6q95 169 156 243t106 74q30 0 51 -23.5t21 -60.5 q0 -53 -31 -128q-15 -36 -38 -80.5t-56 -96.5l-23 11l17 57l4 27q0 32 -12.5 49.5t-36.5 17.5q-40 0 -94 -60t-101 -163q-55 -120 -93 -245t-38 -154q0 -19 9 -31q10 -10 26 -10q9 0 27 9l53 36l2 -43q-89 -81 -174 -134q-81 -49 -123 -49q-23 0 -40 18q-15 18 -15 48 q0 24 25 99t114 304q53 136 78.5 227t25.5 140q0 32 -14 50q-11 17 -41 26z" />
<glyph unicode="&#x158;" horiz-adv-x="1356" d="M1318 1619h-129l-147 303l80 47l143 -241l275 241l94 -49zM453 644l6 2q117 56 159 79l31 -3l49 -1l25 1l39 5q120 75 204 216q41 70 63 134t22 119q0 43 -14 64.5t-42 21.5q-68 0 -225 -179.5t-317 -458.5zM238 1188l-5 47l217 138q174 112 197 112q17 0 29 -16 q10 -17 10 -46q0 -48 -36 -191t-97 -331l4 -8q207 285 378.5 444.5t264.5 159.5q42 0 69 -41.5t27 -109.5q0 -100 -45.5 -216t-120.5 -208q-68 -85 -185 -152q-111 -64 -286 -119q158 -327 219.5 -416.5t108.5 -89.5q25 0 49 16t84 85l15 -47l-95 -107q-157 -178 -194 -178 q-51 0 -181 270t-229 443q-52 -122 -96 -253l-33 -99q-20 -61 -53 -177q-48 -35 -88 -67l-87 -73l-87 -73l-7 3q-3 3 -3 10q0 13 40 111l44 108q164 413 253 686t89 358q0 38 -16 60t-42 22q-19 0 -44 -12t-68 -43z" />
<glyph unicode="&#x159;" horiz-adv-x="645" d="M521 1160h-129l-147 303l80 47l143 -241l275 241l94 -49zM78 858l80 48l66 38q50 27 67 29q15 0 26 -18q9 -18 9 -52q0 -42 -9.5 -95.5t-27.5 -119.5l8 -6q95 169 156 243t106 74q30 0 51 -23.5t21 -60.5q0 -53 -31 -128q-15 -36 -38 -80.5t-56 -96.5l-23 11l17 57l4 27 q0 32 -12.5 49.5t-36.5 17.5q-40 0 -94 -60t-101 -163q-55 -120 -93 -245t-38 -154q0 -19 9 -31q10 -10 26 -10q9 0 27 9l53 36l2 -43q-89 -81 -174 -134q-81 -49 -123 -49q-23 0 -40 18q-15 18 -15 48q0 24 25 99t114 304q53 136 78.5 227t25.5 140q0 32 -14 50 q-11 17 -41 26z" />
<glyph unicode="&#x15a;" horiz-adv-x="1071" d="M878 1617l207 266l221 27l-297 -277zM872 965l-53 6q55 44 77 80t22 77q0 72 -62.5 115t-165.5 43q-155 0 -237 -61t-82 -176q0 -129 230 -244l65 -33q102 -54 141 -108t39 -136q0 -131 -83 -251.5t-265 -251.5q-60 -44 -138.5 -69.5t-150.5 -25.5q-102 0 -189.5 60.5 t-87.5 103.5q0 46 63 168q32 62 71 121.5t90 122.5l73 6q-54 -43 -91 -99q-34 -56 -34 -96q0 -71 80.5 -120.5t202.5 -49.5q164 0 237.5 52.5t73.5 171.5q0 66 -40 112.5t-177 112.5q-158 75 -211 137q-27 33 -40 69.5t-13 84.5q0 74 42 165t120 181q106 122 224 189t233 67 q107 0 187.5 -69.5t80.5 -127.5q0 -28 -68 -131t-164 -196z" />
<glyph unicode="&#x15b;" horiz-adv-x="692" d="M538 1160l207 266l221 27l-297 -277zM496 621l-27 8q15 23 22 45t7 37q0 54 -45 90q-21 18 -49.5 27.5t-63.5 9.5q-60 0 -109 -35t-49 -80q0 -33 29 -68q28 -31 133 -104l18 -13q121 -85 121 -161q0 -40 -29.5 -95.5t-97.5 -136.5q-99 -117 -166.5 -160.5t-140.5 -43.5 q-70 0 -121 35.5t-69 99.5q17 33 37.5 64.5t48.5 65.5q26 34 54.5 67t66.5 73l24 -12q-24 -30 -36.5 -55t-12.5 -50q0 -48 38 -80q39 -30 103 -30q69 0 119.5 34.5t50.5 77.5q0 58 -136 149l-11 7q-85 56 -119.5 103t-34.5 102q0 38 21 80.5t67 99.5q82 99 176 157t166 58 q66 0 119 -36.5t53 -76.5q0 -15 -38 -75l-47 -75z" />
<glyph unicode="&#x15c;" horiz-adv-x="1071" d="M913 1967h129l148 -303l-80 -47l-144 242l-274 -242l-94 49zM872 965l-53 6q55 44 77 80t22 77q0 72 -62.5 115t-165.5 43q-155 0 -237 -61t-82 -176q0 -129 230 -244l65 -33q102 -54 141 -108t39 -136q0 -131 -83 -251.5t-265 -251.5q-60 -44 -138.5 -69.5t-150.5 -25.5 q-102 0 -189.5 60.5t-87.5 103.5q0 46 63 168q32 62 71 121.5t90 122.5l73 6q-54 -43 -91 -99q-34 -56 -34 -96q0 -71 80.5 -120.5t202.5 -49.5q164 0 237.5 52.5t73.5 171.5q0 66 -40 112.5t-177 112.5q-158 75 -211 137q-27 33 -40 69.5t-13 84.5q0 74 42 165t120 181 q106 122 224 189t233 67q107 0 187.5 -69.5t80.5 -127.5q0 -28 -68 -131t-164 -196z" />
<glyph unicode="&#x15d;" horiz-adv-x="692" d="M572 1510h129l148 -303l-80 -47l-144 242l-274 -242l-94 49zM496 621l-27 8q15 23 22 45t7 37q0 54 -45 90q-21 18 -49.5 27.5t-63.5 9.5q-60 0 -109 -35t-49 -80q0 -33 29 -68q28 -31 133 -104l18 -13q121 -85 121 -161q0 -40 -29.5 -95.5t-97.5 -136.5 q-99 -117 -166.5 -160.5t-140.5 -43.5q-70 0 -121 35.5t-69 99.5q17 33 37.5 64.5t48.5 65.5q26 34 54.5 67t66.5 73l24 -12q-24 -30 -36.5 -55t-12.5 -50q0 -48 38 -80q39 -30 103 -30q69 0 119.5 34.5t50.5 77.5q0 58 -136 149l-11 7q-85 56 -119.5 103t-34.5 102 q0 38 21 80.5t67 99.5q82 99 176 157t166 58q66 0 119 -36.5t53 -76.5q0 -15 -38 -75l-47 -75z" />
<glyph unicode="&#x15e;" horiz-adv-x="1071" d="M215 -70h-6q-102 0 -189.5 60.5t-87.5 103.5q0 46 63 168q32 62 71 121.5t90 122.5l73 6q-54 -43 -91 -99q-34 -56 -34 -96q0 -71 80.5 -120.5t202.5 -49.5q164 0 237.5 52.5t73.5 171.5q0 66 -40 112.5t-177 112.5q-158 75 -211 137q-27 33 -40 69.5t-13 84.5 q0 74 42 165t120 181q106 122 224 189t233 67q107 0 187.5 -69.5t80.5 -127.5q0 -28 -68 -131t-164 -196l-53 6q55 44 77 80t22 77q0 72 -62.5 115t-165.5 43q-155 0 -237 -61t-82 -176q0 -129 230 -244l65 -33q102 -54 141 -108t39 -136q0 -131 -83 -251.5t-265 -251.5 q-60 -44 -139 -69q-21 -7 -38 -11.5t-37 -7.5l-44 -60l16 3l43 5q61 0 102.5 -29.5t41.5 -68.5q0 -65 -100 -139t-197 -74q-29 0 -58 10q-16 5 -29 11.5t-28 17.5l39 55q22 -17 52 -28q30 -9 69 -9q50 0 90 26q41 24 41 52t-40 53q-40 23 -95 23q-22 0 -30 -1.5t-13.5 -3 t-12.5 -5.5l-20 14zM284 -63q-18 -3 -34.5 -5t-34.5 -2l51 70h64z" />
<glyph unicode="&#x15f;" horiz-adv-x="692" d="M60 -58l-11 -1q-70 0 -121 35.5t-69 99.5q17 33 37.5 64.5t48.5 65.5q26 34 54.5 67t66.5 73l24 -12q-24 -30 -36.5 -55t-12.5 -50q0 -48 38 -80q39 -30 103 -30q69 0 119.5 34.5t50.5 77.5q0 58 -136 149l-11 7q-85 56 -119.5 103t-34.5 102q0 38 21 80.5t67 99.5 q82 99 176 157t166 58q66 0 119 -36.5t53 -76.5q0 -15 -38 -75l-47 -75l-72 -103l-27 8q15 23 22 45t7 37q0 54 -45 90q-21 18 -49.5 27.5t-63.5 9.5q-60 0 -109 -35t-49 -80q0 -33 29 -68q28 -31 133 -104l18 -13q121 -85 121 -161q0 -40 -29.5 -95.5t-97.5 -136.5 q-99 -117 -167 -160q-25 -16 -53 -27l-59 -81l16 3l43 5q61 0 102.5 -29.5t41.5 -68.5q0 -65 -100 -139t-197 -74q-29 0 -58 10q-16 5 -29 11.5t-28 17.5l39 55q22 -17 52 -28q30 -9 69 -9q50 0 90 26q41 24 41 52t-40 53q-40 23 -95 23q-22 0 -30 -1.5t-13.5 -3t-12.5 -5.5 l-20 14zM136 -42q-40 -16 -76 -16q16 2 25 3q28 5 50 16q0 -1 1 -3z" />
<glyph unicode="&#x160;" horiz-adv-x="1071" d="M872 965l-53 6q55 44 77 80t22 77q0 72 -62.5 115t-165.5 43q-155 0 -237 -61t-82 -176q0 -129 230 -244l65 -33q102 -54 141 -108t39 -136q0 -131 -83 -251.5t-265 -251.5q-60 -44 -138.5 -69.5t-150.5 -25.5q-102 0 -189.5 60.5t-87.5 103.5q0 46 63 168 q32 62 71 121.5t90 122.5l73 6q-54 -43 -91 -99q-34 -56 -34 -96q0 -71 80.5 -120.5t202.5 -49.5q164 0 237.5 52.5t73.5 171.5q0 66 -40 112.5t-177 112.5q-158 75 -211 137q-27 33 -40 69.5t-13 84.5q0 74 42 165t120 181q106 122 224 189t233 67q107 0 187.5 -69.5 t80.5 -127.5q0 -28 -68 -131t-164 -196zM942 1653h-129l-147 303l80 47l143 -241l275 241l94 -49z" />
<glyph unicode="&#x161;" horiz-adv-x="692" d="M496 621l-27 8q15 23 22 45t7 37q0 54 -45 90q-21 18 -49.5 27.5t-63.5 9.5q-60 0 -109 -35t-49 -80q0 -33 29 -68q28 -31 133 -104l18 -13q121 -85 121 -161q0 -40 -29.5 -95.5t-97.5 -136.5q-99 -117 -166.5 -160.5t-140.5 -43.5q-70 0 -121 35.5t-69 99.5 q17 33 37.5 64.5t48.5 65.5q26 34 54.5 67t66.5 73l24 -12q-24 -30 -36.5 -55t-12.5 -50q0 -48 38 -80q39 -30 103 -30q69 0 119.5 34.5t50.5 77.5q0 58 -136 149l-11 7q-85 56 -119.5 103t-34.5 102q0 38 21 80.5t67 99.5q82 99 176 157t166 58q66 0 119 -36.5t53 -76.5 q0 -15 -38 -75l-47 -75zM579 1155h-129l-147 303l80 47l143 -241l275 241l94 -49z" />
<glyph unicode="&#x162;" horiz-adv-x="1331" d="M355 -64h64l-90 -123l16 3l43 5q61 0 102.5 -29.5t41.5 -68.5q0 -65 -100 -139t-197 -74q-29 0 -58 10q-16 5 -29 11.5t-28 17.5l39 55q22 -17 52 -28q30 -9 69 -9q50 0 90 26q41 24 41 52t-40 53q-40 23 -95 23q-22 0 -30 -1.5t-13.5 -3t-12.5 -5.5l-20 14zM109 1235 l44 34q204 158 261 224q107 -19 319 -87q111 -35 188 -53t127 -18q128 63 239 107q102 39 165 51l21 -23q-45 -131 -178.5 -220t-284.5 -89l-45 2l-63 8q-250 -147 -369 -310t-119 -357q0 -149 96 -264t246 -142q86 74 154 165q65 87 116 194l100 12q-146 -239 -325 -393 t-287 -154q-16 0 -37 9.5t-45 27.5q-119 90 -188.5 217.5t-69.5 255.5q0 177 164.5 364.5t499.5 387.5l-219 51q-118 28 -197 43.5t-111 15.5q-38 0 -81.5 -18t-94.5 -57z" />
<glyph unicode="&#x163;" horiz-adv-x="588" d="M-143 -58h64l-90 -123l16 3l43 5q61 0 102.5 -29.5t41.5 -68.5q0 -65 -100 -139t-197 -74q-29 0 -58 10q-16 5 -29 11.5t-28 17.5l39 55q22 -17 52 -28q30 -9 69 -9q50 0 90 26q41 24 41 52t-40 53q-40 23 -95 23q-22 0 -30 -1.5t-13.5 -3t-12.5 -5.5l-20 14zM326 1192 q51 20 103 45.5t110 60.5q-21 -69 -54 -157q-26 -73 -75 -197h219l-123 -90l-129 2q-25 -83 -57 -174t-77 -206q-85 -223 -85 -275q0 -30 9 -50q9 -16 29 -22q39 36 70.5 76.5t59.5 91.5l28 -47q-102 -150 -192.5 -236t-145.5 -86q-35 0 -60.5 39t-25.5 99q0 80 111 361 l35 87l35 91q71 183 71 200q0 19 -20 39q-18 21 -60 45l76 57l76 -4q12 65 40 148z" />
<glyph unicode="&#x164;" horiz-adv-x="1331" d="M1052 1617h-129l-147 303l80 47l143 -241l275 241l94 -49zM109 1235l44 34q204 158 261 224q107 -19 319 -87q111 -35 188 -53t127 -18q128 63 239 107q102 39 165 51l21 -23q-45 -131 -178.5 -220t-284.5 -89l-45 2l-63 8q-250 -147 -369 -310t-119 -357q0 -149 96 -264 t246 -142q86 74 154 165q65 87 116 194l100 12q-146 -239 -325 -393t-287 -154q-16 0 -37 9.5t-45 27.5q-119 90 -188.5 217.5t-69.5 255.5q0 177 164.5 364.5t499.5 387.5l-219 51q-118 28 -197 43.5t-111 15.5q-38 0 -81.5 -18t-94.5 -57z" />
<glyph unicode="&#x165;" horiz-adv-x="588" d="M891 1298q26 -47 36.5 -79t10.5 -54q0 -64 -84 -141.5t-229 -142.5l-13 28q64 36 92.5 76t28.5 88q0 28 -10 54t-37 59zM326 1192q51 20 103 45.5t110 60.5q-21 -69 -54 -157q-26 -73 -75 -197h219l-123 -90l-129 2q-25 -83 -57 -174t-77 -206q-85 -223 -85 -275 q0 -30 9 -50q9 -16 29 -22q39 36 70.5 76.5t59.5 91.5l28 -47q-102 -150 -192.5 -236t-145.5 -86q-35 0 -60.5 39t-25.5 99q0 80 111 361l35 87l35 91q71 183 71 200q0 19 -20 39q-18 21 -60 45l76 57l76 -4q12 65 40 148z" />
<glyph unicode="&#x168;" horiz-adv-x="1432" d="M1694 1853l37 -15q-24 -52 -47.5 -89.5t-44.5 -57.5q-43 -41 -99 -41h-15h-12q-8 2 -13.5 2.5t-13 1.5t-19.5 6l-113 33l-35 9l-24 3q-28 0 -53 -18t-56 -62l-41 21q47 92 93 137t91 45l22 -3l35 -7l130 -35l38 -8l19 -2q37 0 67 20t54 60zM215 1245l192 130l114 75 q76 47 93 47q27 0 42.5 -22t15.5 -60q0 -80 -153 -482l-46 -120l-66 -172q-124 -322 -124 -379q0 -29 11.5 -44t33.5 -15q49 0 172.5 122t249.5 308q46 67 89.5 145.5t86.5 171.5t91 211.5t95 247.5l112 44q122 48 136 50l6 -3l2 -7q0 -11 -66 -157l-88 -197 q-175 -399 -225.5 -565t-50.5 -287q0 -62 17.5 -93.5t50.5 -31.5q29 0 63.5 24t79.5 76l14 -37q-118 -134 -220.5 -211t-162.5 -77q-42 0 -61 34t-19 121q0 118 24 251.5t69 266.5l-7 4q-197 -298 -404.5 -487.5t-311.5 -189.5q-26 0 -41 15q-13 16 -13 46q0 35 101 308 l96 263q81 230 132.5 408t51.5 213q0 36 -12.5 53t-42.5 17q-13 0 -36 -10q-9 -4 -31 -15.5t-50 -28.5z" />
<glyph unicode="&#x169;" horiz-adv-x="901" d="M685 1388l37 -15q-24 -52 -47.5 -89.5t-44.5 -57.5q-43 -41 -99 -41h-15h-12q-8 2 -13.5 2.5t-13 1.5t-19.5 6l-113 33l-35 9l-24 3q-28 0 -53 -18t-56 -62l-41 21q47 92 93 137t91 45l22 -3l35 -7l130 -35l38 -8l19 -2q37 0 67 20t54 60zM678 944l90 18l84 21l6 -6 l-134 -307l-102 -247q-81 -207 -81 -255q0 -31 13.5 -46.5t43.5 -15.5h15q12 3 20 4t18 3q15 5 23 7v-30q-96 -71 -178 -115.5t-111 -44.5q-25 0 -43 21q-16 22 -16 55q0 64 30 167.5t88 234.5l-10 2q-161 -223 -288 -348t-197 -125q-32 0 -49 17q-17 15 -17 48q0 28 17 82 q16 61 47 133l37 92q76 189 113.5 302t37.5 153q0 21 -11.5 31t-33.5 10l-3 -1l-15 -1l-6 22q99 85 166.5 126.5t103.5 41.5q20 0 31.5 -13t11.5 -36q0 -31 -23 -103t-61 -163l-40 -98q-130 -319 -130 -363q0 -16 5.5 -23.5t21.5 -9.5q74 0 237.5 221t288.5 539z" />
<glyph unicode="&#x16a;" horiz-adv-x="1432" d="M1169 1764h539l-31 -139h-539zM215 1245l192 130l114 75q76 47 93 47q27 0 42.5 -22t15.5 -60q0 -80 -153 -482l-46 -120l-66 -172q-124 -322 -124 -379q0 -29 11.5 -44t33.5 -15q49 0 172.5 122t249.5 308q46 67 89.5 145.5t86.5 171.5t91 211.5t95 247.5l112 44 q122 48 136 50l6 -3l2 -7q0 -11 -66 -157l-88 -197q-175 -399 -225.5 -565t-50.5 -287q0 -62 17.5 -93.5t50.5 -31.5q29 0 63.5 24t79.5 76l14 -37q-118 -134 -220.5 -211t-162.5 -77q-42 0 -61 34t-19 121q0 118 24 251.5t69 266.5l-7 4q-197 -298 -404.5 -487.5 t-311.5 -189.5q-26 0 -41 15q-13 16 -13 46q0 35 101 308l96 263q81 230 132.5 408t51.5 213q0 36 -12.5 53t-42.5 17q-13 0 -36 -10q-9 -4 -31 -15.5t-50 -28.5z" />
<glyph unicode="&#x16b;" horiz-adv-x="901" d="M159 1299h539l-31 -139h-539zM678 944l90 18l84 21l6 -6l-134 -307l-102 -247q-81 -207 -81 -255q0 -31 13.5 -46.5t43.5 -15.5h15q12 3 20 4t18 3q15 5 23 7v-30q-96 -71 -178 -115.5t-111 -44.5q-25 0 -43 21q-16 22 -16 55q0 64 30 167.5t88 234.5l-10 2 q-161 -223 -288 -348t-197 -125q-32 0 -49 17q-17 15 -17 48q0 28 17 82q16 61 47 133l37 92q76 189 113.5 302t37.5 153q0 21 -11.5 31t-33.5 10l-3 -1l-15 -1l-6 22q99 85 166.5 126.5t103.5 41.5q20 0 31.5 -13t11.5 -36q0 -31 -23 -103t-61 -163l-40 -98 q-130 -319 -130 -363q0 -16 5.5 -23.5t21.5 -9.5q74 0 237.5 221t288.5 539z" />
<glyph unicode="&#x16c;" horiz-adv-x="1432" d="M1188 1911l64 1q12 -75 54 -109.5t118 -34.5q95 0 167 33.5t138 110.5h70q-91 -152 -182.5 -219.5t-202.5 -67.5q-112 0 -168 71q-28 36 -43 89t-15 126zM215 1245l192 130l114 75q76 47 93 47q27 0 42.5 -22t15.5 -60q0 -80 -153 -482l-46 -120l-66 -172 q-124 -322 -124 -379q0 -29 11.5 -44t33.5 -15q49 0 172.5 122t249.5 308q46 67 89.5 145.5t86.5 171.5t91 211.5t95 247.5l112 44q122 48 136 50l6 -3l2 -7q0 -11 -66 -157l-88 -197q-175 -399 -225.5 -565t-50.5 -287q0 -62 17.5 -93.5t50.5 -31.5q29 0 63.5 24t79.5 76 l14 -37q-118 -134 -220.5 -211t-162.5 -77q-42 0 -61 34t-19 121q0 118 24 251.5t69 266.5l-7 4q-197 -298 -404.5 -487.5t-311.5 -189.5q-26 0 -41 15q-13 16 -13 46q0 35 101 308l96 263q81 230 132.5 408t51.5 213q0 36 -12.5 53t-42.5 17q-13 0 -36 -10q-9 -4 -31 -15.5 t-50 -28.5z" />
<glyph unicode="&#x16d;" horiz-adv-x="901" d="M178 1446l64 1q12 -75 54 -109.5t118 -34.5q95 0 167 33.5t138 110.5h70q-91 -152 -182.5 -219.5t-202.5 -67.5q-112 0 -168 71q-28 36 -43 89t-15 126zM678 944l90 18l84 21l6 -6l-134 -307l-102 -247q-81 -207 -81 -255q0 -31 13.5 -46.5t43.5 -15.5h15q12 3 20 4t18 3 q15 5 23 7v-30q-96 -71 -178 -115.5t-111 -44.5q-25 0 -43 21q-16 22 -16 55q0 64 30 167.5t88 234.5l-10 2q-161 -223 -288 -348t-197 -125q-32 0 -49 17q-17 15 -17 48q0 28 17 82q16 61 47 133l37 92q76 189 113.5 302t37.5 153q0 21 -11.5 31t-33.5 10l-3 -1l-15 -1 l-6 22q99 85 166.5 126.5t103.5 41.5q20 0 31.5 -13t11.5 -36q0 -31 -23 -103t-61 -163l-40 -98q-130 -319 -130 -363q0 -16 5.5 -23.5t21.5 -9.5q74 0 237.5 221t288.5 539z" />
<glyph unicode="&#x16e;" horiz-adv-x="1432" d="M1480 2022q-62 0 -105.5 -44.5t-43.5 -107.5q0 -60 43 -103.5t106 -43.5q62 0 105 43t43 104q0 63 -42.5 107.5t-105.5 44.5zM1480 2120q102 0 175 -73t73 -175t-71.5 -174.5t-176.5 -72.5q-104 0 -176 71.5t-72 175.5t72 176t176 72zM215 1245l192 130l114 75 q76 47 93 47q27 0 42.5 -22t15.5 -60q0 -80 -153 -482l-46 -120l-66 -172q-124 -322 -124 -379q0 -29 11.5 -44t33.5 -15q49 0 172.5 122t249.5 308q46 67 89.5 145.5t86.5 171.5t91 211.5t95 247.5l112 44q122 48 136 50l6 -3l2 -7q0 -11 -66 -157l-88 -197 q-175 -399 -225.5 -565t-50.5 -287q0 -62 17.5 -93.5t50.5 -31.5q29 0 63.5 24t79.5 76l14 -37q-118 -134 -220.5 -211t-162.5 -77q-42 0 -61 34t-19 121q0 118 24 251.5t69 266.5l-7 4q-197 -298 -404.5 -487.5t-311.5 -189.5q-26 0 -41 15q-13 16 -13 46q0 35 101 308 l96 263q81 230 132.5 408t51.5 213q0 36 -12.5 53t-42.5 17q-13 0 -36 -10q-9 -4 -31 -15.5t-50 -28.5z" />
<glyph unicode="&#x16f;" horiz-adv-x="901" d="M471 1557q-62 0 -105.5 -44.5t-43.5 -107.5q0 -60 43 -103.5t106 -43.5q62 0 105 43t43 104q0 63 -42.5 107.5t-105.5 44.5zM471 1655q102 0 175 -73t73 -175t-71.5 -174.5t-176.5 -72.5q-104 0 -176 71.5t-72 175.5t72 176t176 72zM678 944l90 18l84 21l6 -6l-134 -307 l-102 -247q-81 -207 -81 -255q0 -31 13.5 -46.5t43.5 -15.5h15q12 3 20 4t18 3q15 5 23 7v-30q-96 -71 -178 -115.5t-111 -44.5q-25 0 -43 21q-16 22 -16 55q0 64 30 167.5t88 234.5l-10 2q-161 -223 -288 -348t-197 -125q-32 0 -49 17q-17 15 -17 48q0 28 17 82 q16 61 47 133l37 92q76 189 113.5 302t37.5 153q0 21 -11.5 31t-33.5 10l-3 -1l-15 -1l-6 22q99 85 166.5 126.5t103.5 41.5q20 0 31.5 -13t11.5 -36q0 -31 -23 -103t-61 -163l-40 -98q-130 -319 -130 -363q0 -16 5.5 -23.5t21.5 -9.5q74 0 237.5 221t288.5 539z" />
<glyph unicode="&#x172;" horiz-adv-x="1432" d="M258 -47h47q-84 -65 -129 -135t-45 -138q0 -51 24 -77.5t74 -26.5q28 0 54 16q26 14 61 51l23 -28q-58 -70 -119 -107q-29 -17 -59.5 -27t-59.5 -10q-55 0 -91 40.5t-36 103.5q0 81 58 159t198 179zM215 1245l192 130l114 75q76 47 93 47q27 0 42.5 -22t15.5 -60 q0 -80 -153 -482l-46 -120l-66 -172q-124 -322 -124 -379q0 -29 11.5 -44t33.5 -15q49 0 172.5 122t249.5 308q46 67 89.5 145.5t86.5 171.5t91 211.5t95 247.5l112 44q122 48 136 50l6 -3l2 -7q0 -11 -66 -157l-88 -197q-175 -399 -225.5 -565t-50.5 -287q0 -62 17.5 -93.5 t50.5 -31.5q29 0 63.5 24t79.5 76l14 -37q-118 -134 -220.5 -211t-162.5 -77q-42 0 -61 34t-19 121q0 118 24 251.5t69 266.5l-7 4q-197 -298 -404.5 -487.5t-311.5 -189.5q-26 0 -41 15q-13 16 -13 46q0 35 101 308l96 263q81 230 132.5 408t51.5 213q0 36 -12.5 53 t-42.5 17q-13 0 -36 -10q-9 -4 -31 -15.5t-50 -28.5z" />
<glyph unicode="&#x173;" horiz-adv-x="901" d="M241 -54h47q-84 -65 -129 -135t-45 -138q0 -51 24 -77.5t74 -26.5q28 0 54 16q26 14 61 51l23 -28q-58 -70 -119 -107q-29 -17 -59.5 -27t-59.5 -10q-55 0 -91 40.5t-36 103.5q0 81 58 159t198 179zM678 944l90 18l84 21l6 -6l-134 -307l-102 -247q-81 -207 -81 -255 q0 -31 13.5 -46.5t43.5 -15.5h15q12 3 20 4t18 3q15 5 23 7v-30q-96 -71 -178 -115.5t-111 -44.5q-25 0 -43 21q-16 22 -16 55q0 64 30 167.5t88 234.5l-10 2q-161 -223 -288 -348t-197 -125q-32 0 -49 17q-17 15 -17 48q0 28 17 82q16 61 47 133l37 92q76 189 113.5 302 t37.5 153q0 21 -11.5 31t-33.5 10l-3 -1l-15 -1l-6 22q99 85 166.5 126.5t103.5 41.5q20 0 31.5 -13t11.5 -36q0 -31 -23 -103t-61 -163l-40 -98q-130 -319 -130 -363q0 -16 5.5 -23.5t21.5 -9.5q74 0 237.5 221t288.5 539z" />
<glyph unicode="&#x174;" horiz-adv-x="1622" d="M1709 1971h129l148 -303l-80 -47l-144 242l-274 -242l-94 49zM94 1192l-4 39l43 29q338 225 367 225q20 0 31.5 -24t11.5 -70q0 -54 -18 -168t-56 -294l-37 -177l-61 -315q-21 -120 -21 -156q0 -40 12 -59t37 -19q52 0 145 147l32 50l4 7q213 332 264 453 q18 92 27.5 166.5t9.5 116.5q0 80 -20 121q-18 42 -64 67l88 58q156 102 178 102q24 0 38.5 -22t14.5 -62q0 -58 -20 -184t-82 -432l-37 -180q-66 -315 -66 -378q0 -26 15 -47q15 -18 39 -18q77 0 212.5 218.5t282.5 584.5q-31 32 -46 67q-13 37 -13 82q0 40 8 77.5t26 79.5 q35 80 101 150q27 30 57 53q25 18 41 19q18 0 30.5 -26t12.5 -68q0 -21 -3 -44.5t-11 -55.5q-15 -66 -41 -136q15 -42 44 -71t73 -47l-138 -82l-69 -39q-232 -482 -428 -747t-320 -265q-40 0 -59.5 26.5t-19.5 78.5q0 65 49.5 297t74.5 374q-272 -459 -395.5 -617.5 t-191.5 -158.5q-43 0 -71 41q-26 41 -26 111q0 64 47 284l44 213q31 168 52 319q9 72 14 124t5 88q0 72 -24.5 107.5t-73.5 35.5q-24 0 -49 -11q-15 -6 -29 -14t-37 -24z" />
<glyph unicode="&#x175;" horiz-adv-x="1110" d="M414 1510h129l148 -303l-80 -47l-144 242l-274 -242l-94 49zM100 928q54 17 105.5 37t102.5 46l26 11q5 -1 6 -2l2 -4l-12 -35l-19 -53q-58 -175 -93.5 -347t-35.5 -262q0 -34 8.5 -47.5t26.5 -13.5q72 0 166 195.5t121 459.5q71 28 131 64.5t67 38.5l8 -3l3 -5 q0 -9 -11 -45q-81 -284 -81 -611q0 -49 6 -71t20 -23q18 0 56.5 52.5t138.5 221.5q43 77 69.5 144t26.5 98q0 18 -4 30t-16 25q-18 21 -60 35l120 98l64 54q45 -18 77 -37l30 -18q5 -3 29 -21q-56 -41 -185 -263l-74 -126l-61 -98q-163 -260 -265.5 -392.5t-137.5 -132.5 q-22 0 -30.5 10t-8.5 35q5 56 8.5 107t3.5 93q0 62 11 149l22 172l-8 2q-64 -123 -129 -222.5t-137 -182.5q-140 -163 -203 -163q-16 0 -25.5 15.5t-9.5 44.5q0 53 62.5 363.5t88.5 576.5z" />
<glyph unicode="&#x176;" horiz-adv-x="1280" d="M573 1979h129l148 -303l-80 -47l-144 242l-274 -242l-94 49zM700 420q-107 -180 -211.5 -306t-169.5 -157q-14 -37 -21 -67q-3 -16 -5 -31.5t-2 -30.5q0 -33 9.5 -68.5t25.5 -62.5q97 59 186 228t195 493zM115 1262l73 53q267 192 310 192q28 0 40.5 -30.5t12.5 -108.5 q0 -112 -20 -249t-63 -312q-83 -344 -83 -465q0 -58 19.5 -91.5t54.5 -33.5q90 0 273.5 322t381.5 843l143 53l173 68q-47 -58 -96 -143q-53 -90 -144 -268q-72 -140 -146 -302l-157 -354l-95 -220l-70 -157q-27 -58 -46 -94q-31 -59 -90 -123q-28 -32 -65.5 -67.5 t-84.5 -75.5q-77 -65 -130.5 -100t-76.5 -35q-19 0 -34 28q-13 29 -13 74q0 32 6 63t20 67q26 68 89 163q-62 18 -91.5 58.5t-29.5 109.5q0 37 6 78.5t21 112.5l5 25q128 608 128 787q0 66 -23 101t-67 35q-27 0 -56 -10q-18 -6 -32 -11.5t-37 -17.5z" />
<glyph unicode="&#x177;" horiz-adv-x="858" d="M941 1510h129l148 -303l-80 -47l-144 242l-274 -242l-94 49zM57 827q122 105 185 148t90 43q22 0 36.5 -20t14.5 -52q0 -50 -63 -205l-29 -73l-1 -3q-161 -406 -161 -454q0 -15 6 -23t23 -10q75 0 225.5 216t278.5 542q71 28 133 58l67 30l7 -3l3 -5q0 -5 -9 -26.5 t-29 -61.5q-154 -312 -262 -626l-28 -81q-114 -337 -216 -463q-81 -99 -208.5 -171t-201.5 -72q-41 0 -67.5 29.5t-26.5 78.5q0 60 46 126.5t140 141.5l13 -6q-14 -31 -22 -64q-3 -16 -5 -29t-2 -25q0 -47 20.5 -79.5t59.5 -52.5q87 63 168.5 233t185.5 509l-10 2 q-71 -93 -137 -166q-70 -77 -138 -137q-136 -121 -188 -121q-21 0 -36 21.5t-15 58.5t15.5 92.5t55.5 157.5l81 205q31 79 52 140q35 105 35 146q0 17 -9 27t-28 10l-20 -2l-20 -6z" />
<glyph unicode="&#x178;" horiz-adv-x="1280" d="M700 420q-107 -180 -211.5 -306t-169.5 -157q-14 -37 -21 -67q-3 -16 -5 -31.5t-2 -30.5q0 -33 9.5 -68.5t25.5 -62.5q97 59 186 228t195 493zM115 1262l73 53q267 192 310 192q28 0 40.5 -30.5t12.5 -108.5q0 -112 -20 -249t-63 -312q-83 -344 -83 -465 q0 -58 19.5 -91.5t54.5 -33.5q90 0 273.5 322t381.5 843l143 53l173 68q-47 -58 -96 -143q-53 -90 -144 -268q-72 -140 -146 -302l-157 -354l-95 -220l-70 -157q-27 -58 -46 -94q-31 -59 -90 -123q-28 -32 -65.5 -67.5t-84.5 -75.5q-77 -65 -130.5 -100t-76.5 -35 q-19 0 -34 28q-13 29 -13 74q0 32 6 63t20 67q26 68 89 163q-62 18 -91.5 58.5t-29.5 109.5q0 37 6 78.5t21 112.5l5 25q128 608 128 787q0 66 -23 101t-67 35q-27 0 -56 -10q-18 -6 -32 -11.5t-37 -17.5zM1036 1739l142 148q41 -17 86 -28q45 -9 98 -9 q-25 -63 -83.5 -102.5t-125.5 -39.5q-20 0 -29.5 1t-27 6t-31.5 10.5t-29 13.5zM684 1739l139 148q39 -17 85.5 -27t99.5 -10q-25 -62 -83 -102t-124 -40q-20 0 -29.5 1t-27 6t-31.5 10.5t-29 13.5z" />
<glyph unicode="&#x179;" horiz-adv-x="1204" d="M978 1617l207 266l221 27l-297 -277zM211 1120q132 157 254.5 265t157.5 108q24 0 165 -43t269 -68q53 52 105.5 81.5t88.5 29.5q18 0 28.5 -9.5t10.5 -27.5q0 -59 -81 -132t-191 -99l-848 -965l13 3l28 5q20 0 49 -11.5t92 -45.5q162 -90 242 -120t143 -30 q25 0 43.5 4.5t36.5 12.5q33 45 52 91t28 95l86 12q-78 -185 -198 -302t-220 -117q-103 0 -259 122l-40 31q-69 54 -111 75t-77 21h-4q-25 -36 -50 -64t-52 -52q-51 -43 -81 -43q-12 0 -22 11.5t-10 29.5q0 79 69.5 156.5t180.5 119.5l817 973q-73 0 -211 24.5t-211 24.5 l-49 -3l-56 -9q-22 -19 -42 -52l-20 -38l-24 -49z" />
<glyph unicode="&#x17a;" horiz-adv-x="750" d="M813 1160l207 266l221 27l-297 -277zM41 698q66 136 164.5 224t179.5 88q24 0 45 -4t59 -16q64 -20 142 -58q45 44 78 64t57 20q18 0 27.5 -7t11.5 -22q0 -36 -39.5 -75.5t-116.5 -75.5l-131 -159l-111 -131l-90 -103q-117 -132 -192 -201q33 -15 103 -72t122 -57 q50 0 90 39t62 112l43 6q-51 -160 -130 -256t-155 -96q-58 0 -141 76t-139 96q-58 -60 -99 -91.5t-63 -31.5q-9 0 -13 5q-3 2 -4 16q0 20 14.5 58t43.5 87q39 72 75 102.5t76 30.5l16 -1l30 -2q52 50 103 106q55 59 113 129l115 144l127 169l-23 -4l-28 -4 q-33 0 -110.5 20.5t-125.5 20.5l-11 -1l-19 -1q-15 -21 -31 -54l-10 -22q-9 -20 -17 -43z" />
<glyph unicode="&#x17b;" horiz-adv-x="1204" d="M1014 1845q45 0 80 -33.5t35 -79.5q0 -48 -33.5 -81.5t-81.5 -33.5q-45 0 -79 33.5t-34 81.5q0 44 34.5 78.5t78.5 34.5zM211 1120q132 157 254.5 265t157.5 108q24 0 165 -43t269 -68q53 52 105.5 81.5t88.5 29.5q18 0 28.5 -9.5t10.5 -27.5q0 -59 -81 -132t-191 -99 l-848 -965l13 3l28 5q20 0 49 -11.5t92 -45.5q162 -90 242 -120t143 -30q25 0 43.5 4.5t36.5 12.5q33 45 52 91t28 95l86 12q-78 -185 -198 -302t-220 -117q-103 0 -259 122l-40 31q-69 54 -111 75t-77 21h-4q-25 -36 -50 -64t-52 -52q-51 -43 -81 -43q-12 0 -22 11.5 t-10 29.5q0 79 69.5 156.5t180.5 119.5l817 973q-73 0 -211 24.5t-211 24.5l-49 -3l-56 -9q-22 -19 -42 -52l-20 -38l-24 -49z" />
<glyph unicode="&#x17c;" horiz-adv-x="750" d="M849 1388q45 0 80 -33.5t35 -79.5q0 -48 -33.5 -81.5t-81.5 -33.5q-45 0 -79 33.5t-34 81.5q0 44 34.5 78.5t78.5 34.5zM41 698q66 136 164.5 224t179.5 88q24 0 45 -4t59 -16q64 -20 142 -58q45 44 78 64t57 20q18 0 27.5 -7t11.5 -22q0 -36 -39.5 -75.5t-116.5 -75.5 l-131 -159l-111 -131l-90 -103q-117 -132 -192 -201q33 -15 103 -72t122 -57q50 0 90 39t62 112l43 6q-51 -160 -130 -256t-155 -96q-58 0 -141 76t-139 96q-58 -60 -99 -91.5t-63 -31.5q-9 0 -13 5q-3 2 -4 16q0 20 14.5 58t43.5 87q39 72 75 102.5t76 30.5l16 -1l30 -2 q52 50 103 106q55 59 113 129l115 144l127 169l-23 -4l-28 -4q-33 0 -110.5 20.5t-125.5 20.5l-11 -1l-19 -1q-15 -21 -31 -54l-10 -22q-9 -20 -17 -43z" />
<glyph unicode="&#x17d;" horiz-adv-x="1204" d="M211 1120q132 157 254.5 265t157.5 108q24 0 165 -43t269 -68q53 52 105.5 81.5t88.5 29.5q18 0 28.5 -9.5t10.5 -27.5q0 -59 -81 -132t-191 -99l-848 -965l13 3l28 5q20 0 49 -11.5t92 -45.5q162 -90 242 -120t143 -30q25 0 43.5 4.5t36.5 12.5q33 45 52 91t28 95l86 12 q-78 -185 -198 -302t-220 -117q-103 0 -259 122l-40 31q-69 54 -111 75t-77 21h-4q-25 -36 -50 -64t-52 -52q-51 -43 -81 -43q-12 0 -22 11.5t-10 29.5q0 79 69.5 156.5t180.5 119.5l817 973q-73 0 -211 24.5t-211 24.5l-49 -3l-56 -9q-22 -19 -42 -52l-20 -38l-24 -49z M1007 1653h-129l-147 303l80 47l143 -241l275 241l94 -49z" />
<glyph unicode="&#x17e;" horiz-adv-x="750" d="M41 698q66 136 164.5 224t179.5 88q24 0 45 -4t59 -16q64 -20 142 -58q45 44 78 64t57 20q18 0 27.5 -7t11.5 -22q0 -36 -39.5 -75.5t-116.5 -75.5l-131 -159l-111 -131l-90 -103q-117 -132 -192 -201q33 -15 103 -72t122 -57q50 0 90 39t62 112l43 6q-51 -160 -130 -256 t-155 -96q-58 0 -141 76t-139 96q-58 -60 -99 -91.5t-63 -31.5q-9 0 -13 5q-3 2 -4 16q0 20 14.5 58t43.5 87q39 72 75 102.5t76 30.5l16 -1l30 -2q52 50 103 106q55 59 113 129l115 144l127 169l-23 -4l-28 -4q-33 0 -110.5 20.5t-125.5 20.5l-11 -1l-19 -1 q-15 -21 -31 -54l-10 -22q-9 -20 -17 -43zM608 1155h-129l-147 303l80 47l143 -241l275 241l94 -49z" />
<glyph unicode="&#x17f;" horiz-adv-x="692" d="M496 621l-27 8q15 23 22 45t7 37q0 54 -45 90q-21 18 -49.5 27.5t-63.5 9.5q-60 0 -109 -35t-49 -80q0 -33 29 -68q28 -31 133 -104l18 -13q121 -85 121 -161q0 -40 -29.5 -95.5t-97.5 -136.5q-99 -117 -166.5 -160.5t-140.5 -43.5q-70 0 -121 35.5t-69 99.5 q17 33 37.5 64.5t48.5 65.5q26 34 54.5 67t66.5 73l24 -12q-24 -30 -36.5 -55t-12.5 -50q0 -48 38 -80q39 -30 103 -30q69 0 119.5 34.5t50.5 77.5q0 58 -136 149l-11 7q-85 56 -119.5 103t-34.5 102q0 38 21 80.5t67 99.5q82 99 176 157t166 58q66 0 119 -36.5t53 -76.5 q0 -15 -38 -75l-47 -75z" />
<glyph unicode="&#x189;" horiz-adv-x="1219" d="M272 -78l-5 -31l-1 -30q0 -54 20.5 -98t63.5 -78q117 74 243 393q73 182 126 289l-8 6q-120 -192 -231 -308q-107 -110 -208 -143zM870 930h-55q70 63 112 137t42 137q0 62 -36.5 99.5t-96.5 37.5q-72 0 -153.5 -45t-168.5 -137q-150 -157 -244 -368.5t-94 -387.5 q0 -135 57 -213.5t150 -78.5h16q13 3 25 5t33 11q72 69 162.5 207t166.5 302q-34 5 -70 8l-59 6q-29 0 -48 1q-74 4 -83 4l185 121q100 -15 190 -24q28 0 110 -7q47 -4 66 -4q-119 -130 -208 -378l-27 -74q-116 -309 -254 -472t-346 -259q-22 36 -33 78q-10 45 -10 96 q0 48 9 96.5t30 95.5q-59 0 -105.5 26t-85.5 78q-72 96 -72 251q0 203 139.5 460t366.5 461q156 138 298 219.5t231 81.5q68 0 112.5 -38.5t44.5 -100.5q0 -72 -82 -193.5t-215 -238.5zM716 1970l64 1q12 -75 54 -109.5t118 -34.5q95 0 167 33.5t138 110.5h70 q-91 -152 -182.5 -219.5t-202.5 -67.5q-112 0 -168 71q-28 36 -43 89t-15 126z" />
<glyph unicode="&#x192;" horiz-adv-x="1118" d="M989 909l-41 -6q4 8 10.5 25.5t9.5 27.5q7 28 7 45q0 61 -45.5 104.5t-110.5 43.5h-8q-55 -37 -105 -153q-46 -110 -92 -314l89 2l118 4l-33 -90l-106 8l-80 4l-10 -45q-137 -651 -283 -841q-90 -117 -202 -183.5t-218 -66.5q-44 0 -67 15.5t-23 47.5q0 55 40 145 q20 46 45 87t59 84l37 10q-29 -41 -42.5 -79.5t-13.5 -78.5q0 -61 39.5 -99t103.5 -38q69 38 137 234q65 190 199 808l-123 -10l-71 -6l29 94l67 -6l74 -2h41q56 208 103.5 293t122.5 141t176 90.5t186 34.5q35 0 50 -14t15 -47q0 -59 -20 -124.5t-64 -144.5z" />
<glyph unicode="&#x1a0;" horiz-adv-x="1374" d="M1240 1495q26 -47 36.5 -79t10.5 -54q0 -64 -84 -141.5t-229 -142.5l-13 28q64 36 92.5 76t28.5 88q0 28 -10 54t-37 59zM645 1366l33 -6q-217 -166 -339 -393.5t-122 -464.5q0 -177 101 -283t268 -106q83 0 157 33t144 104q118 121 196 309t78 354t-71 265.5t-189 99.5 q-91 0 -178.5 -62.5t-177.5 -193.5l-51 -2q60 80 187 233q123 149 153 207q34 16 78.5 25.5t97.5 9.5q161 0 267.5 -120.5t106.5 -305.5q0 -224 -112.5 -441t-325.5 -403q-160 -139 -309.5 -216t-259.5 -77q-178 0 -281.5 111.5t-103.5 304.5q0 277 173 546.5t480 471.5z " />
<glyph unicode="&#x1a1;" horiz-adv-x="739" d="M838 1038q26 -47 36.5 -79t10.5 -54q0 -64 -84 -141.5t-229 -142.5l-13 28q64 36 92.5 76t28.5 88q0 28 -10 54t-37 59zM410 1020l39 -6q-166 -153 -267.5 -350.5t-101.5 -362.5q0 -83 36 -130.5t99 -47.5q20 0 40 5.5t42 18.5q87 138 141 306t54 282q0 51 -16 79t-46 28 q-12 0 -23 -3.5t-22 -13.5l-12 15l235 198q34 0 58 -51q10 -23 16 -55t6 -72q0 -149 -70.5 -318t-195.5 -313q-115 -132 -224.5 -213.5t-166.5 -81.5q-69 0 -110.5 58t-41.5 158q0 204 141 438t390 432z" />
<glyph unicode="&#x1af;" horiz-adv-x="1432" d="M1590 1503q26 -47 36.5 -79t10.5 -54q0 -64 -84 -141.5t-229 -142.5l-13 28q64 36 92.5 76t28.5 88q0 28 -10 54t-37 59zM215 1245l192 130l114 75q76 47 93 47q27 0 42.5 -22t15.5 -60q0 -80 -153 -482l-46 -120l-66 -172q-124 -322 -124 -379q0 -29 11.5 -44t33.5 -15 q49 0 172.5 122t249.5 308q46 67 89.5 145.5t86.5 171.5t91 211.5t95 247.5l112 44q122 48 136 50l6 -3l2 -7q0 -11 -66 -157l-88 -197q-175 -399 -225.5 -565t-50.5 -287q0 -62 17.5 -93.5t50.5 -31.5q29 0 63.5 24t79.5 76l14 -37q-118 -134 -220.5 -211t-162.5 -77 q-42 0 -61 34t-19 121q0 118 24 251.5t69 266.5l-7 4q-197 -298 -404.5 -487.5t-311.5 -189.5q-26 0 -41 15q-13 16 -13 46q0 35 101 308l96 263q81 230 132.5 408t51.5 213q0 36 -12.5 53t-42.5 17q-13 0 -36 -10q-9 -4 -31 -15.5t-50 -28.5z" />
<glyph unicode="&#x1b0;" horiz-adv-x="901" d="M581 1038q26 -47 36.5 -79t10.5 -54q0 -64 -84 -141.5t-229 -142.5l-13 28q64 36 92.5 76t28.5 88q0 28 -10 54t-37 59zM678 944l90 18l84 21l6 -6l-134 -307l-102 -247q-81 -207 -81 -255q0 -31 13.5 -46.5t43.5 -15.5h15q12 3 20 4t18 3q15 5 23 7v-30 q-96 -71 -178 -115.5t-111 -44.5q-25 0 -43 21q-16 22 -16 55q0 64 30 167.5t88 234.5l-10 2q-161 -223 -288 -348t-197 -125q-32 0 -49 17q-17 15 -17 48q0 28 17 82q16 61 47 133l37 92q76 189 113.5 302t37.5 153q0 21 -11.5 31t-33.5 10l-3 -1l-15 -1l-6 22 q99 85 166.5 126.5t103.5 41.5q20 0 31.5 -13t11.5 -36q0 -31 -23 -103t-61 -163l-40 -98q-130 -319 -130 -363q0 -16 5.5 -23.5t21.5 -9.5q74 0 237.5 221t288.5 539z" />
<glyph unicode="&#x1c0;" horiz-adv-x="1024" d="M438 1565h150v-2048h-150v2048z" />
<glyph unicode="&#x1c1;" horiz-adv-x="2048" d="M1462 1565h150v-2048h-150v2048zM438 1565h150v-2048h-150v2048z" />
<glyph unicode="&#x1c4;" horiz-adv-x="2683" d="M1690 1120q132 157 254.5 265t157.5 108q24 0 165 -43t269 -68q53 52 105.5 81.5t88.5 29.5q18 0 28.5 -9.5t10.5 -27.5q0 -59 -81 -132t-191 -99l-848 -965l13 3l28 5q20 0 49 -11.5t92 -45.5q162 -90 242 -120t143 -30q25 0 43.5 4.5t36.5 12.5q33 45 52 91t28 95 l86 12q-78 -185 -198 -302t-220 -117q-103 0 -259 122l-40 31q-69 54 -111 75t-77 21h-4q-25 -36 -50 -64t-52 -52q-51 -43 -81 -43q-12 0 -22 11.5t-10 29.5q0 79 69.5 156.5t180.5 119.5l817 973q-73 0 -211 24.5t-211 24.5l-49 -3l-56 -9q-22 -19 -42 -52l-20 -38 l-24 -49zM2486 1653h-129l-147 303l80 47l143 -241l275 241l94 -49zM293 223q149 -43 266 -66q57 -10 110 -16t93 -6q34 0 68 4t66 13q64 18 105 49q96 67 175 250q39 92 59 180t20 176q0 190 -103 327.5t-290 194.5q-10 -17 -60 -111l-118 -227l-179 -351zM88 764l-9 69 l-3 68q0 86 15 139.5t52 94.5q153 174 345 268t395 94q240 0 399.5 -169t159.5 -429q0 -221 -132 -432.5t-382 -386.5q-80 -56 -166 -88.5t-156 -32.5q-82 0 -273 53l-175 45q-82 -69 -153 -115t-91 -46q-9 0 -12 3l-4 11q0 34 64 171l7 15q46 97 73 133.5t48 36.5 q26 0 118 -22l9 -2q15 41 59 145l108 254l84 197l75 176l65 155q66 45 120 87q60 47 99 83l-34 3l-54 1q-139 0 -265.5 -39.5t-164.5 -89.5q-31 -37 -78 -134q-38 -78 -143 -316z" />
<glyph unicode="&#x1c5;" horiz-adv-x="2229" d="M1520 698q66 136 164.5 224t179.5 88q24 0 45 -4t59 -16q64 -20 142 -58q45 44 78 64t57 20q18 0 27.5 -7t11.5 -22q0 -36 -39.5 -75.5t-116.5 -75.5l-131 -159l-111 -131l-90 -103q-117 -132 -192 -201q33 -15 103 -72t122 -57q50 0 90 39t62 112l43 6 q-51 -160 -130 -256t-155 -96q-58 0 -141 76t-139 96q-58 -60 -99 -91.5t-63 -31.5q-9 0 -13 5q-3 2 -4 16q0 20 14.5 58t43.5 87q39 72 75 102.5t76 30.5l16 -1l30 -2q52 50 103 106q55 59 113 129l115 144l127 169l-23 -4l-28 -4q-33 0 -110.5 20.5t-125.5 20.5l-11 -1 l-19 -1q-15 -21 -31 -54l-10 -22q-9 -20 -17 -43zM2087 1155h-129l-147 303l80 47l143 -241l275 241l94 -49zM293 223q149 -43 266 -66q57 -10 110 -16t93 -6q34 0 68 4t66 13q64 18 105 49q96 67 175 250q39 92 59 180t20 176q0 190 -103 327.5t-290 194.5 q-10 -17 -60 -111l-118 -227l-179 -351zM88 764l-9 69l-3 68q0 86 15 139.5t52 94.5q153 174 345 268t395 94q240 0 399.5 -169t159.5 -429q0 -221 -132 -432.5t-382 -386.5q-80 -56 -166 -88.5t-156 -32.5q-82 0 -273 53l-175 45q-82 -69 -153 -115t-91 -46q-9 0 -12 3 l-4 11q0 34 64 171l7 15q46 97 73 133.5t48 36.5q26 0 118 -22l9 -2q15 41 59 145l108 254l84 197l75 176l65 155q66 45 120 87q60 47 99 83l-34 3l-54 1q-139 0 -265.5 -39.5t-164.5 -89.5q-31 -37 -78 -134q-38 -78 -143 -316z" />
<glyph unicode="&#x1c6;" horiz-adv-x="1612" d="M903 698q66 136 164.5 224t179.5 88q24 0 45 -4t59 -16q64 -20 142 -58q45 44 78 64t57 20q18 0 27.5 -7t11.5 -22q0 -36 -39.5 -75.5t-116.5 -75.5l-131 -159l-111 -131l-90 -103q-117 -132 -192 -201q33 -15 103 -72t122 -57q50 0 90 39t62 112l43 6 q-51 -160 -130 -256t-155 -96q-58 0 -141 76t-139 96q-58 -60 -99 -91.5t-63 -31.5q-9 0 -13 5q-3 2 -4 16q0 20 14.5 58t43.5 87q39 72 75 102.5t76 30.5l16 -1l30 -2q52 50 103 106q55 59 113 129l115 144l127 169l-23 -4l-28 -4q-33 0 -110.5 20.5t-125.5 20.5l-11 -1 l-19 -1q-15 -21 -31 -54l-10 -22q-9 -20 -17 -43zM1470 1155h-129l-147 303l80 47l143 -241l275 241l94 -49zM477 768q-23 52 -52 81.5t-56 29.5q-30 0 -76.5 -63.5t-105 -187t-95.5 -242t-37 -185.5q0 -26 10.5 -40t30.5 -14q63 0 194.5 185t239.5 456l-4 7zM950 1464 l-198 -517l-134 -376q-98 -296 -98 -389q0 -23 8 -35t23 -12t35 11t41 30l2 -41q-85 -91 -161 -142.5t-126 -51.5q-24 0 -37.5 17.5t-13.5 49.5q0 52 28 155q14 55 33 114t47 133l-8 4q-142 -213 -272.5 -339t-206.5 -126q-36 0 -55 25t-19 73q0 64 17 139.5t54 170.5 q69 185 177 331q96 129 233 222.5t205 93.5q17 0 34 -12q17 -10 42 -42q12 67 58 205l30 97l35 116q54 14 109 37q36 15 59 26.5t59 32.5z" />
<glyph unicode="&#x1c7;" horiz-adv-x="2206" d="M2294 1452q-134 -101 -314 -682l-63 -203l-56 -174l-50 -145q-19 -52 -23 -64q-18 -47 -42 -101q-33 -78 -62 -128q-44 -75 -114 -149q-66 -69 -181 -154q-51 -37 -110 -64.5t-77 -27.5q-27 0 -53.5 44.5t-26.5 104.5q0 114 54 244t159 270l62 21q-55 -73 -89 -182 t-34 -216q0 -61 13 -99t40 -56q55 50 123.5 163t124.5 257q60 154 185 578q121 418 230 624l-66 7l-56 3h-35q-15 0 -43 -4q-32 -3 -61 -12q-76 -96 -118 -194q-20 -50 -30 -94.5t-10 -90.5q0 -67 30.5 -105.5t82.5 -38.5q15 0 28.5 4.5t25.5 13.5q-44 -54 -97 -108.5 t-129 -120.5q-57 19 -85 65t-28 114q0 60 17 125t54 142t83 144t108 133q86 90 156 134.5t129 44.5q50 0 159 -11.5t156 -11.5h33zM852 954l-37 17q92 69 137 130t45 120q0 61 -36.5 97t-102.5 36q-16 0 -42 -6q-8 -2 -24.5 -7t-27.5 -10q-18 -15 -37.5 -40.5t-40.5 -63.5 q-39 -70 -100 -217q-10 -23 -35 -93l-30 -81q-123 -347 -250 -530q59 -7 221 -144l24 -21q88 -74 147 -106q31 -16 57 -24.5t52 -8.5q63 36 113 100.5t90 163.5l108 21q-95 -157 -222 -276t-265 -185q-75 14 -216.5 145.5t-229.5 188.5q-103 -112 -205.5 -180t-159.5 -68 q-12 0 -20 5t-9 15q0 70 110 186t265 177q25 63 63 169l90 256q102 297 175 410q43 68 121 132q40 32 91 66t115 69q88 48 168.5 76t141.5 28q64 0 97.5 -25.5t33.5 -74.5q0 -80 -97.5 -197t-277.5 -250z" />
<glyph unicode="&#x1c8;" horiz-adv-x="1679" d="M1428 911q52 19 227 99l12 6q-133 -329 -284 -743q-142 -395 -168 -437q-64 -97 -169 -189.5t-137 -92.5q-24 0 -39.5 31t-15.5 77q0 38 11 77q5 19 13 41.5t19 43.5l35 35l-9 -48l-3 -47q0 -29 7.5 -48.5t24.5 -34.5q50 41 183 383q68 175 138 380zM1454 1204l27 24 q23 21 45 44q35 36 72 84q42 -17 91 -27t99 -10h16q-38 -69 -99.5 -108.5t-129.5 -39.5q-21 0 -31 1t-30 7q-32 10 -60 25zM852 954l-37 17q92 69 137 130t45 120q0 61 -36.5 97t-102.5 36q-16 0 -42 -6q-8 -2 -24.5 -7t-27.5 -10q-18 -15 -37.5 -40.5t-40.5 -63.5 q-39 -70 -100 -217q-10 -23 -35 -93l-30 -81q-123 -347 -250 -530q59 -7 221 -144l24 -21q88 -74 147 -106q31 -16 57 -24.5t52 -8.5q63 36 113 100.5t90 163.5l108 21q-95 -157 -222 -276t-265 -185q-75 14 -216.5 145.5t-229.5 188.5q-103 -112 -205.5 -180t-159.5 -68 q-12 0 -20 5t-9 15q0 70 110 186t265 177q25 63 63 169l90 256q102 297 175 410q43 68 121 132q40 32 91 66t115 69q88 48 168.5 76t141.5 28q64 0 97.5 -25.5t33.5 -74.5q0 -80 -97.5 -197t-277.5 -250z" />
<glyph unicode="&#x1c9;" horiz-adv-x="919" d="M668 911q52 19 227 99l12 6q-133 -329 -284 -743q-142 -395 -168 -437q-64 -97 -169 -189.5t-137 -92.5q-24 0 -39.5 31t-15.5 77q0 38 11 77q5 19 13 41.5t19 43.5l35 35l-9 -48l-3 -47q0 -29 7.5 -48.5t24.5 -34.5q50 41 183 383q68 175 138 380zM694 1204l27 24 q23 21 45 44q35 36 72 84q42 -17 91 -27t99 -10h16q-38 -69 -99.5 -108.5t-129.5 -39.5q-21 0 -31 1t-30 7q-32 10 -60 25zM348 1378q61 16 116 37t111 49l-112 -300l-145 -369q-199 -507 -199 -600q0 -11 1.5 -21.5t9.5 -21.5q12 -15 34 -15q13 0 29 8l51 31l12 -22 l-73 -76q-149 -154 -189 -154q-41 0 -72 34.5t-31 82.5q0 89 176 532q88 223 158 424q67 193 123 381z" />
<glyph unicode="&#x1ca;" horiz-adv-x="2452" d="M2540 1452q-134 -101 -314 -682l-63 -203l-56 -174l-50 -145q-19 -52 -23 -64q-18 -47 -42 -101q-33 -78 -62 -128q-44 -75 -114 -149q-66 -69 -181 -154q-51 -37 -110 -64.5t-77 -27.5q-27 0 -53.5 44.5t-26.5 104.5q0 114 54 244t159 270l62 21q-55 -73 -89 -182 t-34 -216q0 -61 13 -99t40 -56q55 50 123.5 163t124.5 257q60 154 185 578q121 418 230 624l-66 7l-56 3h-35q-15 0 -43 -4q-32 -3 -61 -12q-76 -96 -118 -194q-20 -50 -30 -94.5t-10 -90.5q0 -67 30.5 -105.5t82.5 -38.5q15 0 28.5 4.5t25.5 13.5q-44 -54 -97 -108.5 t-129 -120.5q-57 19 -85 65t-28 114q0 60 17 125t54 142t83 144t108 133q86 90 156 134.5t129 44.5q50 0 159 -11.5t156 -11.5h33zM197 1221q120 105 229 176q104 65 203 98q94 -147 188 -486q89 -324 164 -798q78 144 142 279q61 129 105.5 248.5t66.5 210t22 159.5 q0 80 -29.5 124t-83.5 44q-42 0 -81.5 -29t-80.5 -88l-20 35q98 137 192 217t152 80q39 0 61.5 -38.5t22.5 -106.5q0 -215 -160.5 -609.5t-441.5 -849.5l-17 -2q-46 360 -112.5 671t-147.5 554q-73 -254 -184.5 -512t-255.5 -504q-108 -183 -192 -279t-136 -96 q-32 0 -55.5 37t-23.5 90q0 111 56.5 227.5t184.5 262.5l64 18q-81 -78 -125.5 -158.5t-44.5 -148.5q0 -24 10 -37.5t31 -13.5q49 0 113 70.5t147 216.5q157 279 258.5 533t101.5 347q0 59 -26.5 91t-77.5 32q-42 0 -99 -29.5t-112 -80.5z" />
<glyph unicode="&#x1cb;" horiz-adv-x="1925" d="M1674 911q52 19 227 99l12 6q-133 -329 -284 -743q-142 -395 -168 -437q-64 -97 -169 -189.5t-137 -92.5q-24 0 -39.5 31t-15.5 77q0 38 11 77q5 19 13 41.5t19 43.5l35 35l-9 -48l-3 -47q0 -29 7.5 -48.5t24.5 -34.5q50 41 183 383q68 175 138 380zM1700 1204l27 24 q23 21 45 44q35 36 72 84q42 -17 91 -27t99 -10h16q-38 -69 -99.5 -108.5t-129.5 -39.5q-21 0 -31 1t-30 7q-32 10 -60 25zM197 1221q120 105 229 176q104 65 203 98q94 -147 188 -486q89 -324 164 -798q78 144 142 279q61 129 105.5 248.5t66.5 210t22 159.5 q0 80 -29.5 124t-83.5 44q-42 0 -81.5 -29t-80.5 -88l-20 35q98 137 192 217t152 80q39 0 61.5 -38.5t22.5 -106.5q0 -215 -160.5 -609.5t-441.5 -849.5l-17 -2q-46 360 -112.5 671t-147.5 554q-73 -254 -184.5 -512t-255.5 -504q-108 -183 -192 -279t-136 -96 q-32 0 -55.5 37t-23.5 90q0 111 56.5 227.5t184.5 262.5l64 18q-81 -78 -125.5 -158.5t-44.5 -148.5q0 -24 10 -37.5t31 -13.5q49 0 113 70.5t147 216.5q157 279 258.5 533t101.5 347q0 59 -26.5 91t-77.5 32q-42 0 -99 -29.5t-112 -80.5z" />
<glyph unicode="&#x1cc;" horiz-adv-x="1384" d="M1133 911q52 19 227 99l12 6q-133 -329 -284 -743q-142 -395 -168 -437q-64 -97 -169 -189.5t-137 -92.5q-24 0 -39.5 31t-15.5 77q0 38 11 77q5 19 13 41.5t19 43.5l35 35l-9 -48l-3 -47q0 -29 7.5 -48.5t24.5 -34.5q50 41 183 383q68 175 138 380zM1159 1204l27 24 q23 21 45 44q35 36 72 84q42 -17 91 -27t99 -10h16q-38 -69 -99.5 -108.5t-129.5 -39.5q-21 0 -31 1t-30 7q-32 10 -60 25zM47 0q-58 -6 -108 -19t-93 -32l54 151l77 199q189 492 189 645q56 15 127 42.5t84 27.5q9 0 13.5 -6t6.5 -21q0 -48 -102 -293l-62 -153l-54 -138 q-35 -91 -46 -122l14 -5q46 81 95 155.5t109.5 153t131.5 160.5t154 168l179 83q42 18 56 18q10 0 15 -8q6 -6 6 -21q0 -38 -122 -291l-17 -37q-73 -151 -122 -283q-44 -124 -44 -173q0 -31 12 -48.5t35 -17.5q11 0 24 4q15 3 27 10v-32l-99 -58q-174 -102 -198 -102 q-22 0 -37.5 20t-15.5 52q0 40 31 124q16 45 42 105t68 148l53 112q74 157 74 184q0 15 -6 22t-20 9q-66 0 -225 -211t-306 -522z" />
<glyph unicode="&#x1cd;" horiz-adv-x="1290" d="M1160 1656h-129l-147 303l80 47l143 -241l275 241l94 -49zM496 621q57 -12 102 -18l82 -5h12l27 2q0 56 8 127l18 140q18 159 43 331q-28 -67 -60.5 -137.5t-70.5 -144.5q-78 -154 -161 -295zM815 1449l121 43l106 42q-58 -186 -96 -417l-24 -158q-15 -107 -22 -184.5 t-7 -172.5l67 3q17 0 50 5l41 6l-71 -47q-34 -21 -71 -37l-26 -6l-7 -111l-2 -83q0 -76 11.5 -104.5t38.5 -28.5q26 0 58 29.5t69 86.5l10 -41q-148 -187 -216 -251t-108 -64q-30 0 -50.5 35.5t-20.5 93.5q0 43 10 149q5 52 11.5 110t16.5 140l-62 -5l-60 -1l-79 1l-87 5 q-231 -374 -376 -539t-239 -165q-57 0 -90 36.5t-33 100.5q0 98 60 218q57 115 174 245l41 4q-69 -87 -107.5 -165t-38.5 -134q0 -42 20.5 -66t55.5 -24q71 0 177.5 108.5t297.5 384.5q-15 0 -28 0.5t-53 4.5q-20 0 -29 1l-51 9q73 34 132 67q69 39 126 76q166 281 262 492 q48 107 73 183t25 125z" />
<glyph unicode="&#x1ce;" d="M659 1160h-129l-147 303l80 47l143 -241l275 241l94 -49zM479 780q-13 45 -44 75t-62 30q-18 0 -48.5 -27.5t-66.5 -81.5q-79 -119 -140 -289q-57 -165 -57 -262q0 -37 9.5 -57.5t27.5 -20.5q36 0 113 85.5t151 216.5q18 31 70 153.5t94 202.5l-4 6zM590 195l6 -45 q-80 -91 -163 -147t-128 -56q-25 0 -40 19q-13 20 -13 54q0 54 23.5 136.5t72.5 189.5l-8 2q-135 -184 -256 -294.5t-184 -110.5q-33 0 -48.5 28t-15.5 84q0 94 37 213t104 246q60 113 125.5 198t137.5 143t163.5 101t124.5 43q24 0 56 -25.5t51 -64.5q25 10 57 32t39 24 l8 -3q4 -5 4 -8q0 -11 -44.5 -108t-77.5 -178q-39 -93 -66 -166t-50 -144q-38 -125 -38 -186q0 -14 1 -19.5t8 -16.5t22 -11q17 0 40.5 18t51.5 52z" />
<glyph unicode="&#x1cf;" horiz-adv-x="883" d="M791 1617h-129l-147 303l80 47l143 -241l275 241l94 -49zM213 1079q60 177 189 288.5t266 111.5q21 0 73 -2.5t73 -2.5l130 -4q-60 -51 -96.5 -94t-59.5 -88q-46 -91 -132.5 -399.5t-166.5 -495.5q-89 -214 -239.5 -379t-284.5 -202q-25 24 -40 62t-15 85q0 76 23 165.5 t67 188.5l104 78q-23 -42 -40 -116t-17 -136q0 -66 15.5 -108t48.5 -60q62 74 118 204q52 125 141 438.5t151 481t112 226.5l-52 3l-46 3q-32 0 -66 -7q-25 -4 -38 -7.5t-40 -12.5q-21 -24 -39 -63q-8 -17 -23 -60l-18 -49l-40 -21z" />
<glyph unicode="&#x1d0;" horiz-adv-x="455" d="M539 1160h-129l-147 303l80 47l143 -241l275 241l94 -49zM178 881q84 39 153 76l77 40q6 -1 7 -2l3 -6l-20 -45q-22 -50 -63 -135q-81 -174 -153 -363l-79 -218q-17 -59 -17 -85q0 -16 7.5 -27t19.5 -12q21 0 53 38t70 110l-31 -146l-109 -82q-48 -34 -81 -53 q-65 -41 -93 -41q-25 0 -42 23.5t-17 60.5q0 62 121 352q117 283 194 515z" />
<glyph unicode="&#x1d1;" horiz-adv-x="1374" d="M1128 1617h-129l-147 303l80 47l143 -241l275 241l94 -49zM645 1366l33 -6q-217 -166 -339 -393.5t-122 -464.5q0 -177 101 -283t268 -106q83 0 157 33t144 104q118 121 196 309t78 354t-71 265.5t-189 99.5q-91 0 -178.5 -62.5t-177.5 -193.5l-51 -2q60 80 187 233 q123 149 153 207q34 16 78.5 25.5t97.5 9.5q161 0 267.5 -120.5t106.5 -305.5q0 -224 -112.5 -441t-325.5 -403q-160 -139 -309.5 -216t-259.5 -77q-178 0 -281.5 111.5t-103.5 304.5q0 277 173 546.5t480 471.5z" />
<glyph unicode="&#x1d2;" horiz-adv-x="739" d="M726 1160h-129l-147 303l80 47l143 -241l275 241l94 -49zM410 1020l39 -6q-166 -153 -267.5 -350.5t-101.5 -362.5q0 -83 36 -130.5t99 -47.5q20 0 40 5.5t42 18.5q87 138 141 306t54 282q0 51 -16 79t-46 28q-12 0 -23 -3.5t-22 -13.5l-12 15l235 198q34 0 58 -51 q10 -23 16 -55t6 -72q0 -149 -70.5 -318t-195.5 -313q-115 -132 -224.5 -213.5t-166.5 -81.5q-69 0 -110.5 58t-41.5 158q0 204 141 438t390 432z" />
<glyph unicode="&#x1d3;" horiz-adv-x="1432" d="M1478 1625h-129l-147 303l80 47l143 -241l275 241l94 -49zM215 1245l192 130l114 75q76 47 93 47q27 0 42.5 -22t15.5 -60q0 -80 -153 -482l-46 -120l-66 -172q-124 -322 -124 -379q0 -29 11.5 -44t33.5 -15q49 0 172.5 122t249.5 308q46 67 89.5 145.5t86.5 171.5 t91 211.5t95 247.5l112 44q122 48 136 50l6 -3l2 -7q0 -11 -66 -157l-88 -197q-175 -399 -225.5 -565t-50.5 -287q0 -62 17.5 -93.5t50.5 -31.5q29 0 63.5 24t79.5 76l14 -37q-118 -134 -220.5 -211t-162.5 -77q-42 0 -61 34t-19 121q0 118 24 251.5t69 266.5l-7 4 q-197 -298 -404.5 -487.5t-311.5 -189.5q-26 0 -41 15q-13 16 -13 46q0 35 101 308l96 263q81 230 132.5 408t51.5 213q0 36 -12.5 53t-42.5 17q-13 0 -36 -10q-9 -4 -31 -15.5t-50 -28.5z" />
<glyph unicode="&#x1d4;" horiz-adv-x="901" d="M469 1160h-129l-147 303l80 47l143 -241l275 241l94 -49zM678 944l90 18l84 21l6 -6l-134 -307l-102 -247q-81 -207 -81 -255q0 -31 13.5 -46.5t43.5 -15.5h15q12 3 20 4t18 3q15 5 23 7v-30q-96 -71 -178 -115.5t-111 -44.5q-25 0 -43 21q-16 22 -16 55q0 64 30 167.5 t88 234.5l-10 2q-161 -223 -288 -348t-197 -125q-32 0 -49 17q-17 15 -17 48q0 28 17 82q16 61 47 133l37 92q76 189 113.5 302t37.5 153q0 21 -11.5 31t-33.5 10l-3 -1l-15 -1l-6 22q99 85 166.5 126.5t103.5 41.5q20 0 31.5 -13t11.5 -36q0 -31 -23 -103t-61 -163l-40 -98 q-130 -319 -130 -363q0 -16 5.5 -23.5t21.5 -9.5q74 0 237.5 221t288.5 539z" />
<glyph unicode="&#x1d5;" horiz-adv-x="1432" d="M803 2148h539l-31 -139h-539zM215 1245l192 130l114 75q76 47 93 47q27 0 42.5 -22t15.5 -60q0 -80 -153 -482l-46 -120l-66 -172q-124 -322 -124 -379q0 -29 11.5 -44t33.5 -15q49 0 172.5 122t249.5 308q46 67 89.5 145.5t86.5 171.5t91 211.5t95 247.5l112 44 q122 48 136 50l6 -3l2 -7q0 -11 -66 -157l-88 -197q-175 -399 -225.5 -565t-50.5 -287q0 -62 17.5 -93.5t50.5 -31.5q29 0 63.5 24t79.5 76l14 -37q-118 -134 -220.5 -211t-162.5 -77q-42 0 -61 34t-19 121q0 118 24 251.5t69 266.5l-7 4q-197 -298 -404.5 -487.5 t-311.5 -189.5q-26 0 -41 15q-13 16 -13 46q0 35 101 308l96 263q81 230 132.5 408t51.5 213q0 36 -12.5 53t-42.5 17q-13 0 -36 -10q-9 -4 -31 -15.5t-50 -28.5zM1030 1739l142 148q41 -17 86 -28q45 -9 98 -9q-25 -63 -83.5 -102.5t-125.5 -39.5q-20 0 -29.5 1t-27 6 t-31.5 10.5t-29 13.5zM678 1739l139 148q39 -17 85.5 -27t99.5 -10q-25 -62 -83 -102t-124 -40q-20 0 -29.5 1t-27 6t-31.5 10.5t-29 13.5z" />
<glyph unicode="&#x1d6;" horiz-adv-x="901" d="M393 1650h539l-31 -139h-539zM678 944l90 18l84 21l6 -6l-134 -307l-102 -247q-81 -207 -81 -255q0 -31 13.5 -46.5t43.5 -15.5h15q12 3 20 4t18 3q15 5 23 7v-30q-96 -71 -178 -115.5t-111 -44.5q-25 0 -43 21q-16 22 -16 55q0 64 30 167.5t88 234.5l-10 2 q-161 -223 -288 -348t-197 -125q-32 0 -49 17q-17 15 -17 48q0 28 17 82q16 61 47 133l37 92q76 189 113.5 302t37.5 153q0 21 -11.5 31t-33.5 10l-3 -1l-15 -1l-6 22q99 85 166.5 126.5t103.5 41.5q20 0 31.5 -13t11.5 -36q0 -31 -23 -103t-61 -163l-40 -98 q-130 -319 -130 -363q0 -16 5.5 -23.5t21.5 -9.5q74 0 237.5 221t288.5 539zM620 1241l142 148q41 -17 86 -28q45 -9 98 -9q-25 -63 -83.5 -102.5t-125.5 -39.5q-20 0 -29.5 1t-27 6t-31.5 10.5t-29 13.5zM268 1241l139 148q39 -17 85.5 -27t99.5 -10q-25 -62 -83 -102 t-124 -40q-20 0 -29.5 1t-27 6t-31.5 10.5t-29 13.5z" />
<glyph unicode="&#x1d7;" horiz-adv-x="1432" d="M1034 2009l207 266l221 27l-297 -277zM215 1245l192 130l114 75q76 47 93 47q27 0 42.5 -22t15.5 -60q0 -80 -153 -482l-46 -120l-66 -172q-124 -322 -124 -379q0 -29 11.5 -44t33.5 -15q49 0 172.5 122t249.5 308q46 67 89.5 145.5t86.5 171.5t91 211.5t95 247.5l112 44 q122 48 136 50l6 -3l2 -7q0 -11 -66 -157l-88 -197q-175 -399 -225.5 -565t-50.5 -287q0 -62 17.5 -93.5t50.5 -31.5q29 0 63.5 24t79.5 76l14 -37q-118 -134 -220.5 -211t-162.5 -77q-42 0 -61 34t-19 121q0 118 24 251.5t69 266.5l-7 4q-197 -298 -404.5 -487.5 t-311.5 -189.5q-26 0 -41 15q-13 16 -13 46q0 35 101 308l96 263q81 230 132.5 408t51.5 213q0 36 -12.5 53t-42.5 17q-13 0 -36 -10q-9 -4 -31 -15.5t-50 -28.5zM1030 1739l142 148q41 -17 86 -28q45 -9 98 -9q-25 -63 -83.5 -102.5t-125.5 -39.5q-20 0 -29.5 1t-27 6 t-31.5 10.5t-29 13.5zM678 1739l139 148q39 -17 85.5 -27t99.5 -10q-25 -62 -83 -102t-124 -40q-20 0 -29.5 1t-27 6t-31.5 10.5t-29 13.5z" />
<glyph unicode="&#x1d8;" horiz-adv-x="901" d="M624 1511l207 266l221 27l-297 -277zM678 944l90 18l84 21l6 -6l-134 -307l-102 -247q-81 -207 -81 -255q0 -31 13.5 -46.5t43.5 -15.5h15q12 3 20 4t18 3q15 5 23 7v-30q-96 -71 -178 -115.5t-111 -44.5q-25 0 -43 21q-16 22 -16 55q0 64 30 167.5t88 234.5l-10 2 q-161 -223 -288 -348t-197 -125q-32 0 -49 17q-17 15 -17 48q0 28 17 82q16 61 47 133l37 92q76 189 113.5 302t37.5 153q0 21 -11.5 31t-33.5 10l-3 -1l-15 -1l-6 22q99 85 166.5 126.5t103.5 41.5q20 0 31.5 -13t11.5 -36q0 -31 -23 -103t-61 -163l-40 -98 q-130 -319 -130 -363q0 -16 5.5 -23.5t21.5 -9.5q74 0 237.5 221t288.5 539zM620 1241l142 148q41 -17 86 -28q45 -9 98 -9q-25 -63 -83.5 -102.5t-125.5 -39.5q-20 0 -29.5 1t-27 6t-31.5 10.5t-29 13.5zM268 1241l139 148q39 -17 85.5 -27t99.5 -10q-25 -62 -83 -102 t-124 -40q-20 0 -29.5 1t-27 6t-31.5 10.5t-29 13.5z" />
<glyph unicode="&#x1d9;" horiz-adv-x="1432" d="M1113 2009h-129l-147 303l80 47l143 -241l275 241l94 -49zM215 1245l192 130l114 75q76 47 93 47q27 0 42.5 -22t15.5 -60q0 -80 -153 -482l-46 -120l-66 -172q-124 -322 -124 -379q0 -29 11.5 -44t33.5 -15q49 0 172.5 122t249.5 308q46 67 89.5 145.5t86.5 171.5 t91 211.5t95 247.5l112 44q122 48 136 50l6 -3l2 -7q0 -11 -66 -157l-88 -197q-175 -399 -225.5 -565t-50.5 -287q0 -62 17.5 -93.5t50.5 -31.5q29 0 63.5 24t79.5 76l14 -37q-118 -134 -220.5 -211t-162.5 -77q-42 0 -61 34t-19 121q0 118 24 251.5t69 266.5l-7 4 q-197 -298 -404.5 -487.5t-311.5 -189.5q-26 0 -41 15q-13 16 -13 46q0 35 101 308l96 263q81 230 132.5 408t51.5 213q0 36 -12.5 53t-42.5 17q-13 0 -36 -10q-9 -4 -31 -15.5t-50 -28.5zM1030 1739l142 148q41 -17 86 -28q45 -9 98 -9q-25 -63 -83.5 -102.5t-125.5 -39.5 q-20 0 -29.5 1t-27 6t-31.5 10.5t-29 13.5zM678 1739l139 148q39 -17 85.5 -27t99.5 -10q-25 -62 -83 -102t-124 -40q-20 0 -29.5 1t-27 6t-31.5 10.5t-29 13.5z" />
<glyph unicode="&#x1da;" horiz-adv-x="901" d="M703 1511h-129l-147 303l80 47l143 -241l275 241l94 -49zM678 944l90 18l84 21l6 -6l-134 -307l-102 -247q-81 -207 -81 -255q0 -31 13.5 -46.5t43.5 -15.5h15q12 3 20 4t18 3q15 5 23 7v-30q-96 -71 -178 -115.5t-111 -44.5q-25 0 -43 21q-16 22 -16 55q0 64 30 167.5 t88 234.5l-10 2q-161 -223 -288 -348t-197 -125q-32 0 -49 17q-17 15 -17 48q0 28 17 82q16 61 47 133l37 92q76 189 113.5 302t37.5 153q0 21 -11.5 31t-33.5 10l-3 -1l-15 -1l-6 22q99 85 166.5 126.5t103.5 41.5q20 0 31.5 -13t11.5 -36q0 -31 -23 -103t-61 -163l-40 -98 q-130 -319 -130 -363q0 -16 5.5 -23.5t21.5 -9.5q74 0 237.5 221t288.5 539zM620 1241l142 148q41 -17 86 -28q45 -9 98 -9q-25 -63 -83.5 -102.5t-125.5 -39.5q-20 0 -29.5 1t-27 6t-31.5 10.5t-29 13.5zM268 1241l139 148q39 -17 85.5 -27t99.5 -10q-25 -62 -83 -102 t-124 -40q-20 0 -29.5 1t-27 6t-31.5 10.5t-29 13.5z" />
<glyph unicode="&#x1db;" horiz-adv-x="1432" d="M625 2327l219 -41l190 -277l-149 29zM215 1245l192 130l114 75q76 47 93 47q27 0 42.5 -22t15.5 -60q0 -80 -153 -482l-46 -120l-66 -172q-124 -322 -124 -379q0 -29 11.5 -44t33.5 -15q49 0 172.5 122t249.5 308q46 67 89.5 145.5t86.5 171.5t91 211.5t95 247.5l112 44 q122 48 136 50l6 -3l2 -7q0 -11 -66 -157l-88 -197q-175 -399 -225.5 -565t-50.5 -287q0 -62 17.5 -93.5t50.5 -31.5q29 0 63.5 24t79.5 76l14 -37q-118 -134 -220.5 -211t-162.5 -77q-42 0 -61 34t-19 121q0 118 24 251.5t69 266.5l-7 4q-197 -298 -404.5 -487.5 t-311.5 -189.5q-26 0 -41 15q-13 16 -13 46q0 35 101 308l96 263q81 230 132.5 408t51.5 213q0 36 -12.5 53t-42.5 17q-13 0 -36 -10q-9 -4 -31 -15.5t-50 -28.5zM1030 1739l142 148q41 -17 86 -28q45 -9 98 -9q-25 -63 -83.5 -102.5t-125.5 -39.5q-20 0 -29.5 1t-27 6 t-31.5 10.5t-29 13.5zM678 1739l139 148q39 -17 85.5 -27t99.5 -10q-25 -62 -83 -102t-124 -40q-20 0 -29.5 1t-27 6t-31.5 10.5t-29 13.5z" />
<glyph unicode="&#x1dc;" horiz-adv-x="901" d="M215 1829l219 -41l190 -277l-149 29zM678 944l90 18l84 21l6 -6l-134 -307l-102 -247q-81 -207 -81 -255q0 -31 13.5 -46.5t43.5 -15.5h15q12 3 20 4t18 3q15 5 23 7v-30q-96 -71 -178 -115.5t-111 -44.5q-25 0 -43 21q-16 22 -16 55q0 64 30 167.5t88 234.5l-10 2 q-161 -223 -288 -348t-197 -125q-32 0 -49 17q-17 15 -17 48q0 28 17 82q16 61 47 133l37 92q76 189 113.5 302t37.5 153q0 21 -11.5 31t-33.5 10l-3 -1l-15 -1l-6 22q99 85 166.5 126.5t103.5 41.5q20 0 31.5 -13t11.5 -36q0 -31 -23 -103t-61 -163l-40 -98 q-130 -319 -130 -363q0 -16 5.5 -23.5t21.5 -9.5q74 0 237.5 221t288.5 539zM620 1241l142 148q41 -17 86 -28q45 -9 98 -9q-25 -63 -83.5 -102.5t-125.5 -39.5q-20 0 -29.5 1t-27 6t-31.5 10.5t-29 13.5zM268 1241l139 148q39 -17 85.5 -27t99.5 -10q-25 -62 -83 -102 t-124 -40q-20 0 -29.5 1t-27 6t-31.5 10.5t-29 13.5z" />
<glyph unicode="&#x1de;" horiz-adv-x="1290" d="M813 2148h539l-31 -139h-539zM496 621q57 -12 102 -18l82 -5h12l27 2q0 56 8 127l18 140q18 159 43 331q-28 -67 -60.5 -137.5t-70.5 -144.5q-78 -154 -161 -295zM815 1449l121 43l106 42q-58 -186 -96 -417l-24 -158q-15 -107 -22 -184.5t-7 -172.5l67 3q17 0 50 5l41 6 l-71 -47q-34 -21 -71 -37l-26 -6l-7 -111l-2 -83q0 -76 11.5 -104.5t38.5 -28.5q26 0 58 29.5t69 86.5l10 -41q-148 -187 -216 -251t-108 -64q-30 0 -50.5 35.5t-20.5 93.5q0 43 10 149q5 52 11.5 110t16.5 140l-62 -5l-60 -1l-79 1l-87 5q-231 -374 -376 -539t-239 -165 q-57 0 -90 36.5t-33 100.5q0 98 60 218q57 115 174 245l41 4q-69 -87 -107.5 -165t-38.5 -134q0 -42 20.5 -66t55.5 -24q71 0 177.5 108.5t297.5 384.5q-15 0 -28 0.5t-53 4.5q-20 0 -29 1l-51 9q73 34 132 67q69 39 126 76q166 281 262 492q48 107 73 183t25 125z M1040 1739l142 148q41 -17 86 -28q45 -9 98 -9q-25 -63 -83.5 -102.5t-125.5 -39.5q-20 0 -29.5 1t-27 6t-31.5 10.5t-29 13.5zM688 1739l139 148q39 -17 85.5 -27t99.5 -10q-25 -62 -83 -102t-124 -40q-20 0 -29.5 1t-27 6t-31.5 10.5t-29 13.5z" />
<glyph unicode="&#x1df;" d="M395 1650h539l-31 -139h-539zM479 780q-13 45 -44 75t-62 30q-18 0 -48.5 -27.5t-66.5 -81.5q-79 -119 -140 -289q-57 -165 -57 -262q0 -37 9.5 -57.5t27.5 -20.5q36 0 113 85.5t151 216.5q18 31 70 153.5t94 202.5l-4 6zM590 195l6 -45q-80 -91 -163 -147t-128 -56 q-25 0 -40 19q-13 20 -13 54q0 54 23.5 136.5t72.5 189.5l-8 2q-135 -184 -256 -294.5t-184 -110.5q-33 0 -48.5 28t-15.5 84q0 94 37 213t104 246q60 113 125.5 198t137.5 143t163.5 101t124.5 43q24 0 56 -25.5t51 -64.5q25 10 57 32t39 24l8 -3q4 -5 4 -8 q0 -11 -44.5 -108t-77.5 -178q-39 -93 -66 -166t-50 -144q-38 -125 -38 -186q0 -14 1 -19.5t8 -16.5t22 -11q17 0 40.5 18t51.5 52zM622 1241l142 148q41 -17 86 -28q45 -9 98 -9q-25 -63 -83.5 -102.5t-125.5 -39.5q-20 0 -29.5 1t-27 6t-31.5 10.5t-29 13.5zM270 1241 l139 148q39 -17 85.5 -27t99.5 -10q-25 -62 -83 -102t-124 -40q-20 0 -29.5 1t-27 6t-31.5 10.5t-29 13.5z" />
<glyph unicode="&#x1e2;" horiz-adv-x="1858" d="M837 1795h539l-31 -139h-539zM481 621q58 -12 103 -18l82 -5h12l27 2q0 56 8 127l18 140q18 159 43 331q-54 -129 -129 -276l-77 -147zM801 1450l121 42l106 42q-62 -191 -102 -451l-29 -196q-15 -103 -25 -211.5t-10 -220.5q53 94 139.5 162t215.5 116 q-94 34 -138.5 81.5t-44.5 113.5q0 84 72.5 177.5t247.5 231.5q114 90 173 121q30 15 58 23t53 8q82 0 144.5 -45t62.5 -98q0 -66 -64 -144t-190 -168l-32 17q51 36 76.5 70t25.5 67q0 50 -52 90.5t-120 40.5q-21 0 -31 -1t-29 -7q-16 -3 -28.5 -8t-28.5 -15 q-63 -58 -99 -120q-16 -29 -25 -58t-9 -53q0 -96 105 -165t262 -69h18l-110 -73q-41 -28 -79 -60l-79 7l-52 5q-178 -27 -304 -141.5t-126 -245.5q0 -93 59 -144.5t165 -51.5q83 0 157.5 24t141.5 74q36 50 68 109q13 25 26 54t22 56l99 13q-117 -235 -299.5 -372.5 t-374.5 -137.5q-132 0 -195 85.5t-63 268.5l3 90l9 104l-63 -5l-64 -1l-78 1l-86 5q-230 -372 -375 -538t-239 -166q-57 0 -90 36.5t-33 100.5q0 98 60 218q57 115 174 245l41 4q-71 -87 -108.5 -165t-37.5 -134q0 -42 20.5 -66t55.5 -24q71 0 177.5 108.5t297.5 384.5 q-16 0 -29 0.5t-53 4.5q-20 0 -29 1l-50 9q73 34 134 68t123 75l150 265q64 120 112 226t73.5 184t25.5 126z" />
</font>
</defs>
</svg>
